Welcome Guest ( Log In | Register )

> Releases Upload / Добавление релизов

Добавить релиз тут / Click here to add release
Рекомендованные обменники / Recommended file shares

> Alyssa Day - Ruinous [ep] (2022), Instrumental/Progressive Metal
post Sep 22 2022, 15:41:46
Post #1

Serial Uploader
Group Icon
Group: V.I.P
Posts: 38,932
Releases: 37068
From: Lithuania
On Forums: 14 years 3 months
Thanks: 463064 time(s)
Lithuania


(IMG:https://metalarea.org/images/audiocovers/2022_Sep/acov_tid369773_thumb.jpg)

*Artist: Alyssa Day
*Album: Ruinous [ep]
*Year: 2022
*Genre: Instrumental/Progressive Metal
*Country: United States (IMG:https://metalarea.org/forum/style_images/flags/United%20States.png)
*Format: mp3@CBR320kbps
*Size: 39MB

Tracklist:
01. A Fever of Matter 4:23
02. Avarice 3:59
03. Marauder 3:10
04. Dread & Dream 5:25
******************************
Total playing time: 16:57


Preview 2
(IMG:https://metalarea.org/images/youtube.png)

Technical info
(IMG:https://metalarea.org/images/spectrogram/2022_Sep/46cea5ba728fe96803cae48abf5b580d.png)
Input File: 02 - Avarice.mp3
Channels : 2
Sample Rate : 44100
Precision : 16-bit
Duration : 00:03:58.00 = 10495800 samples = 17850 CDDA sectors
File Size : 9.67M
Bit Rate : 325k
Sample Encoding: MPEG audio (layer I, II or III)
Comments :
Title=Avarice
Artist=Alyssa Day
Album=Ruinous
Tracknumber=2
Year=2022
Discnumber=1



Register


Thanks:
Go to the top of the page
  Insert nick Quick quote
+Quote Post
 
Start new topic
Replies (1 - 1)
post Sep 23 2022, 20:02:40
Post #2

melofags sniper
**************
Group: Металариец
Posts: 7,055
Releases: 0
On Forums: 14 years 6 months
Thanks: 8871 time(s)
Sudan


This kind of releases... (IMG:style_emoticons/default/21.gif)
Go to the top of the page
  Insert nick Quick quote
+Quote Post

Reply to this topicStart new topic
1 User(s) are reading this topic (1 Guests and 0 Anonymous Users)
0 Members:

 



- Lo-Fi Version Support form
Copyrights and abuse reports form
Time is now: 25th September 2022 - 22:18:20