Welcome Guest ( Log In | Register )

> Releases Upload / Добавление релизов

Добавить релиз тут / Click here to add release
Рекомендованные обменники / Recommended file shares

> Ars Onirica - II: Lost (2022), Melodic Doom/Death Metal (D4)
post Sep 22 2022, 15:48:21
Post #1

Serial Uploader
Group Icon
Group: V.I.P
Posts: 38,971
Releases: 37107
From: Lithuania
On Forums: 14 years 3 months
Thanks: 463498 time(s)
Lithuania


(IMG:https://metalarea.org/images/audiocovers/2022_Sep/acov_tid369774_thumb.jpg)

*Artist: Ars Onirica
*Album: II: Lost
*Year: 2022
*Genre: Melodic Doom/Death Metal
*Country: Italy (IMG:https://metalarea.org/forum/style_images/flags/Italy.png)
*Format: mp3@CBR320kbps
*Size: 95MB

Tracklist:
1. Lost 03:35
2. My Heart... Your Tomb 04:58
3. Daydream 05:58
4. Regret 05:12
5. Forever And A Day 09:26
6. Together... Alone 03:58
7. On The Wall 07:48
******************************
Total playing time: 40:55


Preview 2

(IMG:https://metalarea.org/images/youtube.png)

Technical info
(IMG:https://metalarea.org/images/spectrogram/2022_Sep/10ceaf87118c6b18748676ba4cc53f11.png)
Input File: 02. My Heart... Your Tomb.mp3
Channels : 2
Sample Rate : 44100
Precision : 16-bit
Duration : 00:04:58.00 = 13141800 samples = 22350 CDDA sectors
File Size : 12.0M
Bit Rate : 323k
Sample Encoding: MPEG audio (layer I, II or III)
Comments :
Title=My Heart... Your Tomb
Artist=Ars Onirica
Album=II: Lost
Tracknumber=2
Year=2022
Genre=Doom Metal, Black Metal, Dark Metal
Discnumber=1



Register


Go to the top of the page
  Insert nick Quick quote
+Quote Post
 
Start new topic
Replies (1 - 2)
post Sep 23 2022, 03:35:44
Post #2

Шесть Литров
******
Group: Металариец
Posts: 514
Releases: 0
On Forums: 4 years 7 months
Thanks: 170 time(s)
Belarus


Хм. А не плохо получилось.
Go to the top of the page
  Insert nick Quick quote
+Quote Post
post Sep 23 2022, 10:23:10
Post #3

Девять Литров
*********
Group: Металариец
Posts: 966
Releases: 49
From: Ивантеевка, Московская область
On Forums: 14 years 9 months
Thanks: 1081 time(s)
Russian Federation


I: Cold был хорош. Надеюсь и тут, как минимум, не хуже. Спасибо.
Go to the top of the page
  Insert nick Quick quote
+Quote Post

Reply to this topicStart new topic
2 User(s) are reading this topic (2 Guests and 0 Anonymous Users)
0 Members:

 



- Lo-Fi Version Support form
Copyrights and abuse reports form
Time is now: 30th September 2022 - 14:03:06