Welcome Guest ( Log In | Register )

> Releases Upload / Добавление релизов

Добавить релиз тут / Click here to add release
Рекомендованные обменники / Recommended file shares

 
Reply to this topicStart new topic
> Spellbook - Deadly Charms (2022), Occult Doom/Heavy Metal/Hard Rock
post Sep 22 2022, 16:00:11
Post #1

Правь статус, ####!111
**************
Group: Металариец
Posts: 5,428
Releases: 4963
From: Одесса
On Forums: 14 years 3 months
Thanks: 58445 time(s)
Ukraine


(IMG:http://metalarea.org/images/audiocovers/2022_Sep/acov_tid369775_thumb.jpg)

*Artist: Spellbook
*Album: Deadly Charms
*Year: 2022
*Genre: Occult Doom/Heavy Metal/Hard Rock
*Country: United States (IMG:http://metalarea.org/forum/style_images/flags/United%20States.png)
*Format: mp3@CBR320kbps
*Size: 102MB

Tracklist:
1. 1928 00:33
2. Rehmeyer’s Hollow 04:02
3. Goddess 04:31
4. Pandemonium 04:17
5. Her Spectral Armies 06:49
6. The Witch of Riley Creek 03:19
7. Deadly Charms 06:23
8. Night of the Doppelganger 07:13
9. Out for Blood 05:04
******************************
Total playing time: 42:11



Extended info
Line - up:

Seibert Lowe Jr - Bass
Nick Zinn - Drums
Andy Craven - Guitars (ex-Algol, ex-Winterfell, ex-The Beyond)
Nathanus - Vocals (ex-Ressurectum, ex-Warhawk)


Technical info
(IMG:http://metalarea.org/images/spectrogram/2022_Sep/672cdde7b24288e846a25ba05ced1d82.png)
Input File: 04 - Pandemonium.mp3
Channels : 2
Sample Rate : 44100
Precision : 16-bit
Duration : 00:04:17.00 = 11333700 samples = 19275 CDDA sectors
File Size : 10.3M
Bit Rate : 321k
Sample Encoding: MPEG audio (layer I, II or III)
Comments :
Title=Pandemonium
Artist=Spellbook
Album=Deadly Charms
Tracknumber=4
Year=2022
Genre=Occult Doom | Hard Rock | Heavy Metal



Register


Go to the top of the page
  Insert nick Quick quote
+Quote Post

Reply to this topicStart new topic
1 User(s) are reading this topic (1 Guests and 0 Anonymous Users)
0 Members:

 



- Lo-Fi Version Support form
Copyrights and abuse reports form
Time is now: 25th September 2022 - 22:43:51