Welcome Guest ( Log In | Register )

> Releases Upload / Добавление релизов

Добавить релиз тут / Click here to add release
Рекомендованные обменники / Recommended file shares

 
Reply to this topicStart new topic
> Splinter Horse - Return Of The Stable [ep] (2022), Goregrind (D4)
post Sep 22 2022, 16:16:05
Post #1

Serial Uploader
Group Icon
Group: V.I.P
Posts: 38,972
Releases: 37108
From: Lithuania
On Forums: 14 years 3 months
Thanks: 463747 time(s)
Lithuania


(IMG:https://metalarea.org/images/audiocovers/2022_Sep/acov_tid369777_thumb.jpg)

*Artist: Splinter Horse
*Album: Return Of The Stable [ep]
*Year: 2022
*Genre: Goregrind
*Country: United States (IMG:https://metalarea.org/forum/style_images/flags/United%20States.png)
*Format: mp3@CBR320kbps
*Size: 6MB

Tracklist:
1. Dead Horse Housewarming 01:46
2. Bro Laughs Like He Stuck Hay Up Her Ass 00:54
******************************
Total playing time: 2:40




Technical info
(IMG:https://metalarea.org/images/spectrogram/2022_Sep/91ab2acf77b9865cb0378e73cd1540ae.png)
Input File: 02. Bro Laughs Like He Stuck Hay Up Her Ass.mp3
Channels : 2
Sample Rate : 44100
Precision : 16-bit
Duration : 00:00:54.83 = 2418179 samples = 4112.55 CDDA sectors
File Size : 2.31M
Bit Rate : 337k
Sample Encoding: MPEG audio (layer I, II or III)
Comments :
Title=Bro Laughs Like He Stuck Hay Up Her Ass
Artist=Splinter Horse
Album=Return of The Stable
Tracknumber=2
Year=2022



Register


Thanks:
Go to the top of the page
  Insert nick Quick quote
+Quote Post

Reply to this topicStart new topic
2 User(s) are reading this topic (2 Guests and 0 Anonymous Users)
0 Members:

 



- Lo-Fi Version Support form
Copyrights and abuse reports form
Time is now: 4th October 2022 - 02:20:20