Welcome Guest ( Log In | Register )

> Releases Upload / Добавление релизов

Добавить релиз тут / Click here to add release
Рекомендованные обменники / Recommended file shares

 
Reply to this topicStart new topic
> Gangrene - Rehearsal Demo 2022 [demo] (2022), Goregrind (D4)
post Sep 22 2022, 16:33:31
Post #1

Serial Uploader
Group Icon
Group: V.I.P
Posts: 38,971
Releases: 37107
From: Lithuania
On Forums: 14 years 3 months
Thanks: 463505 time(s)
Lithuania


(IMG:https://metalarea.org/images/audiocovers/2022_Sep/acov_tid369778_thumb.jpg)

*Artist: Gangrene
*Album: Rehearsal Demo 2022 [demo]
*Year: 2022
*Genre: Goregrind
*Country: Philippines (IMG:https://metalarea.org/forum/style_images/flags/Philippines.png)
*Format: mp3@CBR320kbps
*Size: 10MB

Tracklist:
1. Obstetric Monstrosities 00:29
2. Maniacal Miscreations 00:11
3. Essence Of Putrescence 00:35
4. Hyperemesis Gravidarum 00:13
5. Postmortem Fetal Extrusion 00:23
6. Medical Malpractice 00:18
7. Stillbirth 00:18
8. Placental Anastomoses In Monochorionic Twin Pregnancies 00:27
9. Intrauterine Fetal Demise 00:38
10. Regurgitated And Consumed 00:37
******************************
Total playing time: 4:09




Technical info
(IMG:https://metalarea.org/images/spectrogram/2022_Sep/cda7e6f78e37137806c1fd3636ece878.png)
Input File: 03. Essence of Putrescence.mp3
Channels : 2
Sample Rate : 44100
Precision : 16-bit
Duration : 00:00:35.69 = 1573709 samples = 2676.38 CDDA sectors
File Size : 1.51M
Bit Rate : 338k
Sample Encoding: MPEG audio (layer I, II or III)
Comments :
Title=Essence of Putrescence
Artist=Gangrene
Album=Rehearsal Demo 2022
Tracknumber=3
Year=2022



Register


Thanks:
Go to the top of the page
  Insert nick Quick quote
+Quote Post

Reply to this topicStart new topic
2 User(s) are reading this topic (2 Guests and 0 Anonymous Users)
0 Members:

 



- Lo-Fi Version Support form
Copyrights and abuse reports form
Time is now: 30th September 2022 - 15:02:05