Welcome Guest ( Log In | Register )

> Releases Upload / Добавление релизов

Добавить релиз тут / Click here to add release
Рекомендованные обменники / Recommended file shares

 
Reply to this topicStart new topic
> Vathr - Dead & United [ep] (2022), Black Metal
post Sep 22 2022, 16:48:04
Post #1

Правь статус, ####!111
**************
Group: Металариец
Posts: 3,568
Releases: 2059
On Forums: 11 years 10 months
Thanks: 39323 time(s)
Russian Federation


(IMG:https://metalarea.org/images/audiocovers/2022_Sep/acov_tid369779_thumb.jpg)

*Artist: Vathr
*Album: Dead & United [ep]
*Year: 2022
*Genre: Black Metal
*Country: Norway (IMG:https://metalarea.org/forum/style_images/flags/Norway.png)
*Format: mp3@CBR320kbps
*Size: 46MB

Tracklist:
1.March of the Dead 06:08
2.Messiah (Heaven Nor Hell) 05:27
3.Crimson Cold Curse 08:18
******************************
Total playing time: 19:53

(IMG:https://metalarea.org/images/youtube.png)

Extended info
Jørn Inge Tunsberg Everything
See also: Hades Almighty, ex-Amputation, ex-Dominanz, ex-Old Funeral, ex-Immortal


Technical info
(IMG:https://metalarea.org/images/spectrogram/2022_Sep/5bff69b64c9347188f0c86eb6a32ee6b.png)
Input File: 02-Messiah (Heaven Nor Hell).mp3
Channels : 2
Sample Rate : 44100
Precision : 16-bit
Duration : 00:05:27.44 = 14440104 samples = 24558 CDDA sectors
File Size : 13.4M
Bit Rate : 326k
Sample Encoding: MPEG audio (layer I, II or III)
Comments :
Title=Messiah (Heaven Nor Hell)
Artist=Vathr
Album=Dead & United
Tracknumber=02
Year=2022
Genre=Black Metal



Register


Go to the top of the page
  Insert nick Quick quote
+Quote Post

Reply to this topicStart new topic
2 User(s) are reading this topic (2 Guests and 0 Anonymous Users)
0 Members:

 



- Lo-Fi Version Support form
Copyrights and abuse reports form
Time is now: 4th October 2022 - 00:32:17