Welcome Guest ( Log In | Register )

> Releases Upload / Добавление релизов

Добавить релиз тут / Click here to add release
Рекомендованные обменники / Recommended file shares

 
Reply to this topicStart new topic
> Krøne - Hymnes To The Wolf In Man [ep] (2022), Atmospheric Black Metal
post Sep 22 2022, 16:56:08
Post #1

Правь статус, 616
**************
Group: Металариец
Posts: 7,939
Releases: 6279
From: 55°35’N 38°08’E
On Forums: 14 years 2 months
Thanks: 114960 time(s)
Russian Federation


(IMG:https://metalarea.org/images/audiocovers/2022_Sep/acov_tid369780_thumb.jpg)

*Artist: Krøne
*Album: Hymnes To The Wolf In Man [ep]
*Year: 2022
*Genre: Atmospheric Black Metal
*Country: Germany (IMG:https://metalarea.org/forum/style_images/flags/Germany.png)
*Format: mp3@CBR320kbps
*Size: 59MB

Tracklist:
1.Hymnes To The Night
2.Fenrir
3.The Werwolf Reich
4.Shapeshifter
5.Like The Moth
******************************
Total playing time: 23:36



Technical info
(IMG:https://metalarea.org/images/spectrogram/2022_Sep/b7593fdb5f90f790dcaf77c11af20202.png)
Input File: 01 Hymnes to the Wolf in Man.mp3
Channels : 2
Sample Rate : 44100
Precision : 16-bit
Duration : 00:23:36.57 = 62470781 samples = 106243 CDDA sectors
File Size : 56.9M
Bit Rate : 321k
Sample Encoding: MPEG audio (layer I, II or III)
Comments :
Title=Hymnes to the Wolf in Man
Artist=Krøne
Album=Hymnes to the Wolf in Man
Tracknumber=1
Year=2022
Genre=Black Metal



Register


Go to the top of the page
  Insert nick Quick quote
+Quote Post

Reply to this topicStart new topic
1 User(s) are reading this topic (1 Guests and 0 Anonymous Users)
0 Members:

 



- Lo-Fi Version Support form
Copyrights and abuse reports form
Time is now: 25th September 2022 - 22:49:17