Welcome Guest ( Log In | Register )

> Releases Upload / Добавление релизов

Добавить релиз тут / Click here to add release
Рекомендованные обменники / Recommended file shares

 
Reply to this topicStart new topic
> Band Of Spice - How We Play The Game (2022), Heavy/Stoner Metal
post Sep 22 2022, 17:06:01
Post #1

Правь статус, ####!111
**************
Group: Металариец
Posts: 5,442
Releases: 4980
From: Одесса
On Forums: 14 years 3 months
Thanks: 58590 time(s)
Ukraine


(IMG:http://metalarea.org/images/audiocovers/2022_Sep/acov_tid369781_thumb.jpg)

*Artist: Band Of Spice
*Album: How We Play The Game
*Year: 2022
*Genre: Heavy/Stoner Metal
*Country: Sweden (IMG:http://metalarea.org/forum/style_images/flags/Sweden.png)
*Format: mp3@CBR320kbps
*Size: 90MB

Tracklist:
1. Gone Insane 05:32
2. Demonized 04:25
3. My Game 05:27
4. Below the Sun 02:56
5. Control 05:10
6. Descending 04:05
7. Offside 02:47
8. Little Casino 02:06
9. A Song for You 05:11
******************************
Total playing time: 37:39



Extended info
Line - up:

Alexander "Saso" Sekulovski - Bass (My Regime, ex-Majestic Ground, ex-The Mushroom River Band, Aranda Orquíd, Chubby Bob)
Bob Ruben - Drums (Inferno (XII), Kayser, My Regime, The Defaced, ex-Claustrophobia, ex-The Mushroom River Band, ex-Spice and the RJ Band)
Spice - Vocals, Guitars (Kayser, My Regime, ex-Aeon, ex-Spiritual Beggars, ex-The Mushroom River Band, ex-Spice and the RJ Band)


Technical info
(IMG:http://metalarea.org/images/spectrogram/2022_Sep/0b108d8fe90abd446eefa50648f8882a.png)
Input File: 04 - Below the Sun.mp3
Channels : 2
Sample Rate : 44100
Precision : 16-bit
Duration : 00:02:56.00 = 7761600 samples = 13200 CDDA sectors
File Size : 7.05M
Bit Rate : 320k
Sample Encoding: MPEG audio (layer I, II or III)
Comments :
Title=Below The Sun
Artist=Band Of Spice
Album=How We Play The Game
Tracknumber=4
Year=2022-09-23
Genre=Stoner Metal | Hard Rock



Register


Go to the top of the page
  Insert nick Quick quote
+Quote Post

Reply to this topicStart new topic
2 User(s) are reading this topic (2 Guests and 0 Anonymous Users)
0 Members:

 



- Lo-Fi Version Support form
Copyrights and abuse reports form
Time is now: 30th September 2022 - 14:38:32