Welcome Guest ( Log In | Register )

> Releases Upload / Добавление релизов

Добавить релиз тут / Click here to add release
Рекомендованные обменники / Recommended file shares

 
Reply to this topicStart new topic
> Decoy - Without Warning (2022), Melodic Heavy Metal/Hard Rock
post Sep 22 2022, 17:45:01
Post #1

Правь статус, ####!111
**************
Group: Металариец
Posts: 5,472
Releases: 5009
From: Одесса
On Forums: 14 years 4 months
Thanks: 58823 time(s)
Ukraine


(IMG:http://metalarea.org/images/audiocovers/2022_Sep/acov_tid369785_thumb.jpg)

*Artist: Decoy
*Album: Without Warning
*Year: 2022
*Genre: Melodic Heavy Metal/Hard Rock
*Country: International (IMG:http://metalarea.org/forum/style_images/flags/International.png)
*Format: mp3@CBR320kbps
*Size: 117MB

Tracklist:
1. Broken Pride 04:22
2. In and Out of Love 04:53
3. Fire's Gone 04:17
4. All or Nothing 04:25
5. How Was I to Know 04:37
6. Never Easy 04:41
7. Midnight Show 04:12
8. Now or Never 04:10
9. Reach Out 04:42
10. We Live, We Learn 04:02
11. Without Warning 04:36
******************************
Total playing time: 48:57

Extended info
Line - up:

Pete Steiner - Bass (Fate)
Dennis Hansen - Drums (Section A, Torben Enevoldsen, ex-Fatal Force, Acacia Avenue)
Torben Enevoldsen - Guitars, Keyboards (Fate, Section A, Torben Enevoldsen, ex-Fatal Force, Acacia Avenue)
Peter Sundell - Vocals (ex-Wulcan, ex-Code, ex-Grand Illusion, ex-Heartland, ex-In & Out, ex-Mark V, ex-Northern Lights, ex-Overland, ex-Peter Sundell, ex-Promotion)



Technical info
(IMG:http://metalarea.org/images/spectrogram/2022_Sep/328a86daeb4fd5d8512bca35dd037865.png)
Input File: 11. Without Warning.mp3
Channels : 2
Sample Rate : 44100
Precision : 16-bit
Duration : 00:04:35.69 = 12157841 samples = 20676.6 CDDA sectors
File Size : 11.1M
Bit Rate : 322k
Sample Encoding: MPEG audio (layer I, II or III)
Comments :
Title=Without Warning
Artist=Decoy
Album=Without Warning
Tracknumber=11
Year=2022
Genre=Melodic Heavy Metal, Hard Rock



Register


Go to the top of the page
  Insert nick Quick quote
+Quote Post

Reply to this topicStart new topic
2 User(s) are reading this topic (2 Guests and 0 Anonymous Users)
0 Members:

 



- Lo-Fi Version Support form
Copyrights and abuse reports form
Time is now: 4th October 2022 - 00:59:06