Welcome Guest ( Log In | Register )

> Releases Upload / Добавление релизов

Добавить релиз тут / Click here to add release
Рекомендованные обменники / Recommended file shares

> Proceed On Your Way To Oblivion - Ceremorphosis (2022), Technical Death Metal
post Sep 22 2022, 17:48:46
Post #1

Правь статус, ####!111
**************
Group: Металариец
Posts: 30,319
Releases: 22320
From: Г.Харьков
On Forums: 10 years 4 months
Thanks: 465957 time(s)
Unknown


(IMG:http://metalarea.org/images/audiocovers/2022_Sep/acov_tid369786_thumb.jpg)

*Artist: Proceed On Your Way To Oblivion
*Album: Ceremorphosis
*Year: 2022
*Genre: Technical Death Metal
*Country: United States (IMG:http://metalarea.org/forum/style_images/flags/United%20States.png)
*Format: mp3@CBR320kbps
*Size: 86MB

Tracklist:
01. Meteor Swarm 01:40
02. Ceremorphosis 03:47
03. Beholder 05:04
04. Atrophic Radiance 04:40
05. Deal With The Devil 03:49
06. The Whispered One 04:10
07. Ravenloft 04:03
08. Reap What You Sew 03:48
09. The Natural End 05:47
******************************
Total playing time: 36:48

(IMG:http://metalarea.org/images/youtube.png)


Technical info
(IMG:http://metalarea.org/images/spectrogram/2022_Sep/a548e375a5f34feec122161f6b4b79e5.png)
Input File: 07 - Ravenloft.mp3
Channels : 2
Sample Rate : 44100
Precision : 16-bit
Duration : 00:04:02.00 = 10672200 samples = 18150 CDDA sectors
File Size : 9.85M
Bit Rate : 326k
Sample Encoding: MPEG audio (layer I, II or III)
Comments :
Title=Ravenloft
Artist=Proceed On Your Way To Oblivion
Album=Ceremorphosis
Tracknumber=7
Year=2022-09-23
Genre=Rock
Discnumber=1



Register


Go to the top of the page
  Insert nick Quick quote
+Quote Post
 
Start new topic
Replies (1 - 2)
post Sep 23 2022, 20:08:40
Post #2

Три Литра
***
Group: Завсегдатай
Posts: 206
Releases: 1
From: Переделкино
On Forums: 13 years 10 months
Thanks: 20 time(s)
Russian Federation


норм,но не доконца техникаl
Go to the top of the page
  Insert nick Quick quote
+Quote Post
post Yesterday, 21:22:14
Post #3

hearer & reader
**************
Group: Металариец
Posts: 10,340
Releases: 211
From: Moscow
On Forums: 15 years 2 weeks
Thanks: 12635 time(s)
Russian Federation



Как по мне, так это техничный дескор.
Go to the top of the page
  Insert nick Quick quote
+Quote Post

Reply to this topicStart new topic
1 User(s) are reading this topic (1 Guests and 0 Anonymous Users)
0 Members:

 



- Lo-Fi Version Support form
Copyrights and abuse reports form
Time is now: 25th September 2022 - 21:57:59