Welcome Guest ( Log In | Register )

> Releases Upload / Добавление релизов

Добавить релиз тут / Click here to add release
Рекомендованные обменники / Recommended file shares

 
Reply to this topicStart new topic
> Icons Of Sin - Sacrificial Reign [ep] (2021), Melodic Death/Black Metal
post Sep 22 2022, 18:47:13
Post #1

Девять Литров
*********
Group: Металариец
Posts: 935
Releases: 234
On Forums: 3 years 4 months
Thanks: 4103 time(s)
Russian Federation


(IMG:https://metalarea.org/images/audiocovers/2022_Sep/acov_tid369787_thumb.jpg)

*Artist: Icons Of Sin
*Album: Sacrificial Reign [ep]
*Year: 2021
*Genre: Melodic Death/Black Metal
*Country: United States (IMG:https://metalarea.org/forum/style_images/flags/United%20States.png)
*Format: mp3@CBR320kbps
*Size: 49MB

Tracklist:
1. Icons of Sin 03:27
2. Sacrificial Reign 05:34
3. Forlorn 03:49
4. Foreshadowing Death 02:50
5. Dawning Circle 04:38
******************************
Total playing time: 20:18


(IMG:https://metalarea.org/images/youtube.png)



Technical info
(IMG:https://metalarea.org/images/spectrogram/2022_Sep/e801593805c30b01985c8a6b4d87d508.png)
Input File: Icons of Sin - Sacrificial Reign - 02 Sacrificial Reign.mp3
Channels : 2
Sample Rate : 44100
Precision : 16-bit
Duration : 00:05:34.67 = 14759079 samples = 25100.5 CDDA sectors
File Size : 13.7M
Bit Rate : 326k
Sample Encoding: MPEG audio (layer I, II or III)
Comments :
Title=Sacrificial Reign
Artist=Icons of Sin
Album=Sacrificial Reign
Tracknumber=2
Year=2021



Register


Go to the top of the page
  Insert nick Quick quote
+Quote Post

Reply to this topicStart new topic
1 User(s) are reading this topic (1 Guests and 0 Anonymous Users)
0 Members:

 



- Lo-Fi Version Support form
Copyrights and abuse reports form
Time is now: 4th October 2022 - 01:55:54