Welcome Guest ( Log In | Register )

> Releases Upload / Добавление релизов

Добавить релиз тут / Click here to add release
Рекомендованные обменники / Recommended file shares

> Lungtoucher - The Ninth Incantation (2022), Post-Black Metal (D4)
post Sep 22 2022, 19:09:26
Post #1

Правь статус, ####!111
**************
Group: Металариец
Posts: 5,472
Releases: 5009
From: Одесса
On Forums: 14 years 4 months
Thanks: 58824 time(s)
Ukraine


(IMG:http://metalarea.org/images/audiocovers/2022_Sep/acov_tid369788_thumb.jpg)

*Artist: Lungtoucher
*Album: The Ninth Incantation
*Year: 2022
*Genre: Post-Black Metal
*Country: United Kingdom (IMG:http://metalarea.org/forum/style_images/flags/United%20Kingdom.png)
*Format: mp3@CBR320kbps
*Size: 92MB

Tracklist:
1. The Banishing (feat. Mondernte) 04:50
2. Burning Effigy 05:12
3. Temperance (feat. Celestial Sword) 03:38
4. Imprisoned Zealot (feat. Febris Manea) 03:58
5. The Ninth Incantation (feat. Revenant Marquis) 06:10
6. Glorious Flames (feat. Ages of Blood & Maiden Hair) 08:45
7. Opening the Seals (feat. Wounds Of Recollection) 05:47
******************************
Total playing time: 38:20



Extended info
Line - up:

Mat Caron - Bass, Vocals (additional)
Devon Brown - Guitars, Vocals (Medraut)


Technical info
(IMG:http://metalarea.org/images/spectrogram/2022_Sep/935dce5d6e7f9a26e1767ce5f9b08609.png)
Input File: 01 - The Banishing (feat. Mondernte).mp3
Channels : 2
Sample Rate : 44100
Precision : 16-bit
Duration : 00:04:50.00 = 12789000 samples = 21750 CDDA sectors
File Size : 11.6M
Bit Rate : 321k
Sample Encoding: MPEG audio (layer I, II or III)
Comments :
Title=The Banishing (feat. Mondernte)
Artist=Lungtoucher;Mondernte
Album=The Ninth Incantation
Tracknumber=1
Year=2022
Genre=Post-Black Metal



Register


Go to the top of the page
  Insert nick Quick quote
+Quote Post
 
Start new topic
Replies (1 - 1)
post Sep 24 2022, 05:46:54
Post #2

кручу наждак
**************
Group: Металариец
Posts: 5,701
Releases: 107
From: Самара
On Forums: 12 years 4 months
Thanks: 4499 time(s)
Russian Federation


Ну неплохо так, модерновенько, но атмосферно.
Пускай лучше такой стафф называют пост-блеком, чем всякое зефирное говно.
Go to the top of the page
  Insert nick Quick quote
+Quote Post

Reply to this topicStart new topic
1 User(s) are reading this topic (1 Guests and 0 Anonymous Users)
0 Members:

 



- Lo-Fi Version Support form
Copyrights and abuse reports form
Time is now: 4th October 2022 - 02:11:23