Welcome Guest ( Log In | Register )

> Releases Upload / Добавление релизов

Добавить релиз тут / Click here to add release
Рекомендованные обменники / Recommended file shares

> Bitter Loss - Valleys Of The Fallen Empire [ep] (2022), Old School Death Metal (D4)
post Sep 22 2022, 20:12:36
Post #1

Правь статус, ####!111
**************
Group: Металариец
Posts: 30,352
Releases: 22347
From: Г.Харьков
On Forums: 10 years 4 months
Thanks: 466666 time(s)
Unknown


(IMG:http://metalarea.org/images/audiocovers/2022_Sep/acov_tid369790_thumb.jpg)

*Artist: Bitter Loss
*Album: Valleys Of The Fallen Empire [ep]
*Year: 2022
*Genre: Old School Death Metal
*Country: Russian Federation (IMG:http://metalarea.org/forum/style_images/flags/Russian%20Federation.png)
*Format: mp3@CBR320kbps
*Size: 75MB

Tracklist:
1. …From Cold Into Eternity 01:27
2. God’s Grave 06:48
3. Tyranny Ascending 02:56
4. Those Left Behind (free) 05:34
5. Centuries Hidden in Silence 05:32
6. Valleys of the Fallen Empire 08:46
7. Catharsis Illusion Pt.1 01:08
******************************
Total playing time: 32:11



Extended info
Nick - Voice
Tom - Guitar, Synths
Artem - Guitar
Ivan - Bass
Sasha - Drums


Technical info
(IMG:http://metalarea.org/images/spectrogram/2022_Sep/d281f89d53cb2e9510d2582c800f03c8.png)
Input File: Bitter Loss - Valleys Of The Fallen Empire - 05 Centuries Hidden in Silence.mp3
Channels : 2
Sample Rate : 44100
Precision : 16-bit
Duration : 00:05:32.58 = 14666910 samples = 24943.7 CDDA sectors
File Size : 13.5M
Bit Rate : 325k
Sample Encoding: MPEG audio (layer I, II or III)
Comments :
Title=Centuries Hidden in Silence
Artist=Bitter Loss
Album=Valleys Of The Fallen Empire
Tracknumber=5
Year=2022



Register


Go to the top of the page
  Insert nick Quick quote
+Quote Post
 
Start new topic
Replies (1 - 1)
post Sep 23 2022, 10:52:01
Post #2

Правь статус, ####!111
**************
Group: Металариец
Posts: 30,352
Releases: 22347
From: Г.Харьков
On Forums: 10 years 4 months
Thanks: 466666 time(s)
Unknown


FLAC (Tracks) 376 mb
Register


Go to the top of the page
  Insert nick Quick quote
+Quote Post

Reply to this topicStart new topic
2 User(s) are reading this topic (2 Guests and 0 Anonymous Users)
0 Members:

 



- Lo-Fi Version Support form
Copyrights and abuse reports form
Time is now: 30th September 2022 - 13:22:38