Welcome Guest ( Log In | Register )

> Releases Upload / Добавление релизов

Добавить релиз тут / Click here to add release
Рекомендованные обменники / Recommended file shares

 
Reply to this topicStart new topic
> Kera Munin - Moment [ep] (2022), Black Metal
post Sep 22 2022, 21:27:51
Post #1

Правь статус, 616
**************
Group: Металариец
Posts: 7,972
Releases: 6312
From: 55°35’N 38°08’E
On Forums: 14 years 2 months
Thanks: 115391 time(s)
Russian Federation


(IMG:https://metalarea.org/images/audiocovers/2022_Sep/acov_tid369791_thumb.jpg)

*Artist: Kera Munin
*Album: Moment [ep]
*Year: 2022
*Genre: Black Metal
*Country: Germany (IMG:https://metalarea.org/forum/style_images/flags/Germany.png)
*Format: mp3@CBR320kbps
*Size: 39MB

Tracklist:
1.Erinnerung 00:58
2.Ein Neuer Tag Beginnt 03:02
3.Eine Perspektive 05:50
4.Ein Moment der Klarheit 07:01
******************************
Total playing time: 16:51


(IMG:https://metalarea.org/images/youtube.png)

Technical info
(IMG:https://metalarea.org/images/spectrogram/2022_Sep/18e77f8c88e6749edf7ababb5e28b021.png)
Input File: 02 Ein neuer Tag beginnt.mp3
Channels : 2
Sample Rate : 44100
Precision : 16-bit
Duration : 00:03:02.09 = 8029993 samples = 13656.5 CDDA sectors
File Size : 7.45M
Bit Rate : 327k
Sample Encoding: MPEG audio (layer I, II or III)
Comments :
Title=Ein neuer Tag beginnt
Artist=Kera Munin
Album=Moment
Tracknumber=2
Year=2022
Genre=Black Metal



Register


Go to the top of the page
  Insert nick Quick quote
+Quote Post

Reply to this topicStart new topic
2 User(s) are reading this topic (2 Guests and 0 Anonymous Users)
0 Members:

 



- Lo-Fi Version Support form
Copyrights and abuse reports form
Time is now: 4th October 2022 - 01:17:54