Welcome Guest ( Log In | Register )

> Releases Upload / Добавление релизов

Добавить релиз тут / Click here to add release
Рекомендованные обменники / Recommended file shares

 
Reply to this topicStart new topic
> Vircolac - Feraliminal [demo] (2016), Death/Black Metal (D)
post Sep 22 2022, 21:59:43
Post #1

Правь статус, 616
**************
Group: Металариец
Posts: 7,961
Releases: 6303
From: 55°35’N 38°08’E
On Forums: 14 years 2 months
Thanks: 115258 time(s)
Russian Federation


(IMG:https://metalarea.org/images/audiocovers/2022_Sep/acov_tid369792_thumb.jpg)

*Artist: Vircolac
*Album: Feraliminal [demo]
*Year: 2016
*Genre: Death/Black Metal
*Country: Ireland (IMG:https://metalarea.org/forum/style_images/flags/Ireland.png)
*Format: mp3@CBR320kbps
*Size: 31MB

Tracklist:
1.Intro / The Cursed Travails Of The Demeter 08:25
2.Charonic Journey (Stygian Revelation) 04:47
******************************
Total playing time: 13:12




Extended info
Flac-rip


Technical info
(IMG:https://metalarea.org/images/spectrogram/2022_Sep/e128c92d178d6d0f2abd212cc21dce02.png)
Input File: 01 Intro-The Cursed Travails Of The Demeter.mp3
Channels : 2
Sample Rate : 44100
Precision : 16-bit
Duration : 00:08:25.63 = 22298327 samples = 37922.3 CDDA sectors
File Size : 20.3M
Bit Rate : 322k
Sample Encoding: MPEG audio (layer I, II or III)
Comments :
Title=Intro/The Cursed Travails Of The Demeter
Artist=Vircolac
Album=Feraliminal
Tracknumber=01
Year=2016
Genre=Death Metal



Register


Go to the top of the page
  Insert nick Quick quote
+Quote Post

Reply to this topicStart new topic
2 User(s) are reading this topic (2 Guests and 0 Anonymous Users)
0 Members:

 



- Lo-Fi Version Support form
Copyrights and abuse reports form
Time is now: 30th September 2022 - 13:49:33