Welcome Guest ( Log In | Register )

> Orthodoxy - Ater Ignis (2022), Occult Death Metal
post Sep 23 2022, 00:52:20
Post #1

Правь статус, ####!111
**************
Group: Металариец
Posts: 30,921
Releases: 22793
From: Г.Харьков
On Forums: 10 years 6 months
Thanks: 476889 time(s)
Unknown


(IMG:http://metalarea.org/images/audiocovers/2022_Sep/acov_tid369793_thumb.jpg)

*Artist: Orthodoxy
*Album: Ater Ignis
*Year: 2022
*Genre: Occult Death Metal
*Country: Spain (IMG:http://metalarea.org/forum/style_images/flags/Spain.png)
*Format: mp3@CBR320kbps
*Size: 101MB

Tracklist:
1. Enter the Netherworld 04:00
2. Into Primigenian Darkness I Dwell 07:05
3. Victory Beyond Death 06:07
4. Banished From My Glance 06:07
5. Masked Beast 07:24
6. Where Shadows Move Unseen 05:47
7. Ater Ignis (Covenant of Death) 08:05
******************************
Total playing time: 44:35




Extended info
NTN All instruments
See also: Profundis Tenebrarum, Vengeance, ex-Martyrum Omnium, ex-Voice of Hate, ex-Domains, ex-Devotion, ex-Obscure, ex-Acriter
Nosferatvm Bass, Guitars (2015-present)
See also: Devotion, Profundis Tenebrarum, ex-Der Führer des Schattens, ex-Slugfeast, ex-Obscure, ex-Deadhermit
Davy Guitars (2016-present)
Grond GH Drums (2017-present)
See also: ex-Whoredom, ex-Pestkraft, ex-Dis Gob


Technical info
(IMG:http://metalarea.org/images/spectrogram/2022_Sep/f6f3b667759d32cb9f112910c05034e3.png)
Input File: 05 - Masked Beast.mp3
Channels : 2
Sample Rate : 44100
Precision : 16-bit
Duration : 00:07:22.00 = 19492200 samples = 33150 CDDA sectors
File Size : 17.8M
Bit Rate : 322k
Sample Encoding: MPEG audio (layer I, II or III)
Comments :
Title=Masked Beast
Artist=Orthodoxy
Album=Ater Ignis
Tracknumber=5
Year=2022-09-22
Genre=Metal
Discnumber=1



Register


Go to the top of the page
  Insert nick Quick quote
+Quote Post
 
Start new topic
Replies (1 - 5)
post Sep 23 2022, 10:43:37
Post #2

Правь статус, ####!111
**************
Group: Металариец
Posts: 30,921
Releases: 22793
From: Г.Харьков
On Forums: 10 years 6 months
Thanks: 476889 time(s)
Unknown


FLAC (Tracks) 327 mb
Register


Go to the top of the page
  Insert nick Quick quote
+Quote Post
post Sep 24 2022, 12:36:04
Post #3

кручу наждак
**************
Group: Металариец
Posts: 5,802
Releases: 107
From: Самара
On Forums: 12 years 6 months
Thanks: 4550 time(s)
Russian Federation


Понадеялся, что группа чувака из Domains сбацает что-нибудь годное, а оказалось фуфлом.
На одном оккультизме далеко не уедешь.
Go to the top of the page
  Insert nick Quick quote
+Quote Post
post Sep 24 2022, 18:30:07
Post #4

Common dweller of hell
**************
Group: Металариец
Posts: 4,496
Releases: 12
From: Dnipro
On Forums: 14 years 4 months
Thanks: 1781 time(s)
Ukraine


Вполне не плохо
Go to the top of the page
  Insert nick Quick quote
+Quote Post
post Sep 29 2022, 08:43:27
Post #5

Два Литра
**
Group: Завсегдатай
Posts: 118
Releases: 1
On Forums: 10 years 11 months
Thanks: 70 time(s)
Latvia


Solid Death/Doom!
Go to the top of the page
  Insert nick Quick quote
+Quote Post
post Sep 29 2022, 17:41:15
Post #6

Восемь Литров
********
Group: Металариец
Posts: 818
Releases: 0
From: Лыткарино
On Forums: 3 years 6 months
Thanks: 225 time(s)
Russian Federation


Хороший, кстати, дум дэт, атмосферка могильная.


Thanks:
(1) Occultas,
Go to the top of the page
  Insert nick Quick quote
+Quote Post

Reply to this topicStart new topic
1 User(s) are reading this topic (1 Guests and 0 Anonymous Users)
0 Members:

 



- Lo-Fi Version Support form
Copyrights and abuse reports form
Time is now: 2nd December 2022 - 23:41:27