Welcome Guest ( Log In | Register )

> Releases Upload / Добавление релизов

Добавить релиз тут / Click here to add release
Рекомендованные обменники / Recommended file shares

 
Reply to this topicStart new topic
> Black Debbath - Age Of Kørka (2022), Stoner/Heavy/Doom Metal (D)
post Sep 23 2022, 02:46:49
Post #1

Правь статус, ####!111
**************
Group: Металариец
Posts: 3,534
Releases: 2022
On Forums: 11 years 10 months
Thanks: 38750 time(s)
Russian Federation


(IMG:https://metalarea.org/images/audiocovers/2022_Sep/acov_tid369794_thumb.jpg)

*Artist: Black Debbath
*Album: Age Of Kørka
*Year: 2022
*Genre: Stoner/Heavy/Doom Metal
*Country: Norway (IMG:https://metalarea.org/forum/style_images/flags/Norway.png)
*Format: mp3@CBR320kbps
*Size: 89MB

Tracklist:
01.Age of Korka 02:57
02.Hobby dommedagsprofet 04:49
03.Hvor i helvete blir det av Satan? 04:50
04.Pastor Gjok 05:04
05.Sannhetens brod 05:12
06.Ikke pirre Putin 01:40
07.4/4 fillern 03:44
08.Sutringsfrihet 03:45
09.Syng for livet 04:57
******************************
Total playing time: 36:58

(IMG:https://metalarea.org/images/youtube.png)

Technical info
(IMG:https://metalarea.org/images/spectrogram/2022_Sep/1eceacb4ae412d85c1857b923a238c37.png)
Input File: 07 - 4_4 fillern.mp3
Channels : 2
Sample Rate : 44100
Precision : 16-bit
Duration : 00:03:44.00 = 9878400 samples = 16800 CDDA sectors
File Size : 9.15M
Bit Rate : 327k
Sample Encoding: MPEG audio (layer I, II or III)
Comments :
Title=4/4 Fillern
Artist=Black Debbath
Album=Age Of Kørka
Tracknumber=7
Year=2022-09-23
Discnumber=1



Register


Go to the top of the page
  Insert nick Quick quote
+Quote Post

Reply to this topicStart new topic
1 User(s) are reading this topic (1 Guests and 0 Anonymous Users)
0 Members:

 



- Lo-Fi Version Support form
Copyrights and abuse reports form
Time is now: 30th September 2022 - 14:53:35