Welcome Guest ( Log In | Register )

> Releases Upload / Добавление релизов

Добавить релиз тут / Click here to add release
Рекомендованные обменники / Recommended file shares

> Enmity - Demagoguery (2022), Old School Death Metal (D5)
post Sep 23 2022, 03:00:33
Post #1

Правь статус, ####!111
**************
Group: Металариец
Posts: 3,568
Releases: 2059
On Forums: 11 years 10 months
Thanks: 39334 time(s)
Russian Federation


(IMG:https://metalarea.org/images/audiocovers/2022_Sep/acov_tid369795_thumb.jpg)

*Artist: Enmity
*Album: Demagoguery
*Year: 2022
*Genre: Old School Death Metal
*Country: International (IMG:https://metalarea.org/forum/style_images/flags/International.png)
*Format: mp3@CBR320kbps
*Size: 84MB

Tracklist:
1.My Enemy 04:32
2.The Bullet that kills you 04:45
3.The Enemy below 05:54
4.Preventable Genocide 04:56
5.Flying Fortress 05:33
6.Resistance 04:32
7.Demagoguery 07:41
******************************
Total playing time: 37:53



Extended info
Members of Nile, Trojan & No Return


Technical info
(IMG:https://metalarea.org/images/spectrogram/2022_Sep/b45ddc2cfd644b594ddb3eff53db76e2.png)
Input File: 02 - The Bullet That Kills You.mp3
Channels : 2
Sample Rate : 44100
Precision : 16-bit
Duration : 00:04:45.33 = 12582965 samples = 21399.6 CDDA sectors
File Size : 11.5M
Bit Rate : 321k
Sample Encoding: MPEG audio (layer I, II or III)
Comments :
Title=The Bullet That Kills You
Artist=Enmity
Album=Demagoguery
Tracknumber=02
Year=2022
Genre=Old School Death Metal



Register


Go to the top of the page
  Insert nick Quick quote
+Quote Post
 
Start new topic
Replies (1 - 4)
post Sep 23 2022, 14:19:40
Post #2

Мегаманьяк
***********
Group: Металариец
Posts: 1,817
Releases: 1
From: APATIN, SERBIA, АПАТИН, СЕРБИЯ
On Forums: 14 years 11 months
Thanks: 5414 time(s)



Flac

Register


Go to the top of the page
  Insert nick Quick quote
+Quote Post
post Sep 23 2022, 17:58:17
Post #3

королева бала
**********
Group: Металариец
Posts: 1,100
Releases: 0
On Forums: 15 years 5 months
Thanks: 733 time(s)
Russian Federation


Свежи бэнд с барабанщиком из Nile и Карлом Сандерсом на фите-соляке.

Альбом неплох. Но мне нехватило чуть кача и резвости. Пока не определился, оставлять в плеере или нет.


Thanks:
(1) judaz,
Go to the top of the page
  Insert nick Quick quote
+Quote Post
post Sep 24 2022, 06:31:04
Post #4

кручу наждак
**************
Group: Металариец
Posts: 5,701
Releases: 107
From: Самара
On Forums: 12 years 4 months
Thanks: 4499 time(s)
Russian Federation


ЦИТАТА(xax @ Sep 23 2022, 17:58:17) *
Альбом неплох. Но мне нехватило чуть кача и резвости. Пока не определился, оставлять в плеере или нет.

Всё так.
Избавиться от излишнего умняка, добавить кача, и будет то шо доктор прописал.
Go to the top of the page
  Insert nick Quick quote
+Quote Post
post Sep 29 2022, 22:19:49
Post #5

Добрейшей души Мегаманьяк
**************
Group: Металариец
Posts: 2,036
Releases: 0
From: Bashkortostan, Өфө
On Forums: 14 years 7 months
Thanks: 981 time(s)
Russian Federation


По второму прослуху намана. Переслушаю-ка сольник Коллиаса и чтонидь из NILE.


Thanks:
(1) Sanctus,
Go to the top of the page
  Insert nick Quick quote
+Quote Post

Reply to this topicStart new topic
2 User(s) are reading this topic (2 Guests and 0 Anonymous Users)
0 Members:

 



- Lo-Fi Version Support form
Copyrights and abuse reports form
Time is now: 4th October 2022 - 02:07:50