Welcome Guest ( Log In | Register )

> Releases Upload / Добавление релизов

Добавить релиз тут / Click here to add release
Рекомендованные обменники / Recommended file shares

> Spheres - Helios (2022), Heavy/Progressive Metal
post Sep 23 2022, 03:17:04
Post #1

Правь статус, ####!111
**************
Group: Металариец
Posts: 3,568
Releases: 2059
On Forums: 11 years 10 months
Thanks: 39325 time(s)
Russian Federation


(IMG:https://metalarea.org/images/audiocovers/2022_Sep/acov_tid369796_thumb.jpg)

*Artist: Spheres
*Album: Helios
*Year: 2022
*Genre: Heavy/Progressive Metal
*Country: France (IMG:https://metalarea.org/forum/style_images/flags/France.png)
*Format: mp3@CBR320kbps
*Size: 110MB

Tracklist:
01.Algorithmic Sentience 04:07
02.Spiritual Journey 06:30
03.Pandemia 11:15
04.Helios 01:11
05.SCS 04:28
06.Running Man 08:35
07.Take Me Higher, Ailleurs 05:06
08.Do You Agree 05:12
******************************
Total playing time: 46:24

(IMG:https://metalarea.org/images/youtube.png)

Technical info
(IMG:https://metalarea.org/images/spectrogram/2022_Sep/bb0456dbe1dea8797a8845d8481897f1.png)
Input File: 05 - SCS.mp3
Channels : 2
Sample Rate : 44100
Precision : 16-bit
Duration : 00:04:28.00 = 11818800 samples = 20100 CDDA sectors
File Size : 10.9M
Bit Rate : 325k
Sample Encoding: MPEG audio (layer I, II or III)
Comments :
Title=SCS
Artist=Spheres
Album=Helios
Tracknumber=5
Year=2022-09-23
Discnumber=1



Register


Go to the top of the page
  Insert nick Quick quote
+Quote Post
 
Start new topic
Replies (1 - 1)
post Sep 25 2022, 17:26:16
Post #2

Литр
*
Group: Подсевший
Posts: 90
Releases: 0
From: Москва, м. Менделеевская
On Forums: 15 years 1 month
Thanks: 7 time(s)
Afghanistan


Музон приятный, но к вокалу привыкнуть непросто...
Go to the top of the page
  Insert nick Quick quote
+Quote Post

Reply to this topicStart new topic
1 User(s) are reading this topic (1 Guests and 0 Anonymous Users)
0 Members:

 



- Lo-Fi Version Support form
Copyrights and abuse reports form
Time is now: 4th October 2022 - 00:46:48