Welcome Guest ( Log In | Register )

> Releases Upload / Добавление релизов

Добавить релиз тут / Click here to add release
Рекомендованные обменники / Recommended file shares

> Аллюзион - Тёмная Сторона Земли (2022), Heavy/Symphonic Metal
post Sep 23 2022, 03:50:28
Post #1

Правь статус, ####!111
**************
Group: Металариец
Posts: 3,534
Releases: 2022
On Forums: 11 years 10 months
Thanks: 38751 time(s)
Russian Federation


(IMG:https://metalarea.org/images/audiocovers/2022_Sep/acov_tid369797_thumb.jpg)

*Artist: Аллюзион
*Album: Тёмная Сторона Земли
*Year: 2022
*Genre: Heavy/Symphonic Metal
*Country: Russian Federation (IMG:https://metalarea.org/forum/style_images/flags/Russian%20Federation.png)
*Format: mp3@CBR320kbps
*Size: 104MB

Tracklist:
01.Tote Prinzessin 03:49
02.Кладбище Домашних Животных 03:21
03.Злая Девочка 03:10
04.Вечера На Хуторе Близ Диканьки 03:22
05.Королевство Кривых Зеркал 03:41
06.Куклы 03:50
07.Всадник Без Головы 03:46
08.Профессор Мориарти 03:51
09.Динозавр Корней 03:51
10.Мёртвые Души 03:49
11.В Театре Абсурда 04:46
12.Мёртвая Царевна (Bonus Track) 03:49
******************************
Total playing time: 45:05

Preview 1

Technical info
(IMG:https://metalarea.org/images/spectrogram/2022_Sep/e3b54bb35f6230b3d1b86b8f1f07a4da.png)
Input File: 02 Кладбище Домашних Животных.mp3
Channels : 2
Sample Rate : 44100
Precision : 16-bit
Duration : 00:03:22.04 = 8910140 samples = 15153.3 CDDA sectors
File Size : 8.08M
Bit Rate : 320k
Sample Encoding: MPEG audio (layer I, II or III)
Comments :
Title=Кладбище Домашних Животных
Artist=Аллюзион
Album=Тёмная Сторона Земли
Tracknumber=2
Year=2022
Genre=Heavy/Thrash Metal



Register


Go to the top of the page
  Insert nick Quick quote
+Quote Post
 
Start new topic
Replies (1 - 5)
post Sep 23 2022, 15:59:55
Post #2

De Mysteriis Dom Sathanas
**************
Group: Металариец
Posts: 4,481
Releases: 64
From: Doom
On Forums: 14 years 2 months
Thanks: 3884 time(s)
Russian Federation


Я-то подумал, что про Африку тема, а тут все еще веселее (IMG:style_emoticons/default/1488.gif)
"Динозавр корней" - стесняюсь спросить - что это? (IMG:style_emoticons/default/1488.gif)


Thanks:
(1) nsk2008,
Go to the top of the page
  Insert nick Quick quote
+Quote Post
post Sep 23 2022, 16:02:50
Post #3

Правь статус, ####!111
**************
Group: Металариец
Posts: 51,764
Releases: 949
On Forums: 13 years 3 months
Thanks: 48428 time(s)
Russian Federation


ЦИТАТА(RUSP73 @ Sep 23 2022, 17:59:55) *
"Динозавр корней" - стесняюсь спросить - что это? (IMG:style_emoticons/default/1488.gif)


Обитатель "Театра Абсурда" (их же песни) , вестимо (IMG:style_emoticons/default/bye.gif) (IMG:style_emoticons/default/1488.gif)


Go to the top of the page
  Insert nick Quick quote
+Quote Post
post Sep 24 2022, 06:08:00
Post #4

Шесть Литров
******
Group: Металариец
Posts: 669
Releases: 0
From: Беларусь,Минск
On Forums: 12 years 4 months
Thanks: 59 time(s)
Unknown


Ай нет))))))_ (IMG:style_emoticons/default/15.gif)

Киша лучше
Go to the top of the page
  Insert nick Quick quote
+Quote Post
post Sep 24 2022, 07:12:38
Post #5

Котеги! Нравяцо котеги?
**************
Group: Металариец
Posts: 7,589
Releases: 0
From: Терра Инкогнита
On Forums: 12 years 4 months
Thanks: 3604 time(s)
Russian Federation


ЦИТАТА(RUSP73 @ 23rd September 2022 - 17:59:55) *
Динозавр корней" - стесняюсь спросить - что это?

возможно, Корней - это имя


Thanks:
Go to the top of the page
  Insert nick Quick quote
+Quote Post
post Sep 24 2022, 08:11:43
Post #6

А чо я то?!
******
Group: Металариец
Posts: 541
Releases: 2
From: Уругвай ёпта.
On Forums: 15 years 7 months
Thanks: 132 time(s)
Uruguay


Вроде осень на дворе? К чему этот список чтения на лето?
Go to the top of the page
  Insert nick Quick quote
+Quote Post

Reply to this topicStart new topic
2 User(s) are reading this topic (2 Guests and 0 Anonymous Users)
0 Members:

 



- Lo-Fi Version Support form
Copyrights and abuse reports form
Time is now: 30th September 2022 - 15:02:47