Welcome Guest ( Log In | Register )

> Releases Upload / Добавление релизов

Добавить релиз тут / Click here to add release
Рекомендованные обменники / Recommended file shares

> Hersker - Hudangst (2022), Black Metal
post Sep 23 2022, 04:12:16
Post #1

Правь статус, ####!111
**************
Group: Металариец
Posts: 3,568
Releases: 2059
On Forums: 11 years 10 months
Thanks: 39323 time(s)
Russian Federation


(IMG:https://metalarea.org/images/audiocovers/2022_Sep/acov_tid369798_thumb.jpg)

*Artist: Hersker
*Album: Hudangst
*Year: 2022
*Genre: Black Metal
*Country: Denmark (IMG:https://metalarea.org/forum/style_images/flags/Denmark.png)
*Format: mp3@CBR320kbps
*Size: 68MB

Tracklist:
1.Udbrændt barn 01:11
2.Faldet 02:38
3.Afskåret 04:21
4.Angstbetonet vejrtrækning 01:12
5.Fængslet 03:04
6.Barnet 03:33
7.Klingens rust 02:15
8.Løgnen 02:57
9.Byrden 01:05
10.Guillotinen 04:00
11.XI 02:53
******************************
Total playing time: 29:09



Technical info
(IMG:https://metalarea.org/images/spectrogram/2022_Sep/6942727758d6b563a8d27620d07daab0.png)
Input File: 02 - Faldet.mp3
Channels : 2
Sample Rate : 44100
Precision : 16-bit
Duration : 00:02:38.00 = 6967800 samples = 11850 CDDA sectors
File Size : 6.43M
Bit Rate : 326k
Sample Encoding: MPEG audio (layer I, II or III)
Comments :
Title=Faldet
Artist=Hersker
Album=Hudangst
Tracknumber=2
Year=2022-09-22
Genre=Rock
Discnumber=1



Register


Go to the top of the page
  Insert nick Quick quote
+Quote Post
 
Start new topic
Replies (1 - 1)
post Sep 25 2022, 07:02:20
Post #2

кручу наждак
**************
Group: Металариец
Posts: 5,701
Releases: 107
From: Самара
On Forums: 12 years 4 months
Thanks: 4499 time(s)
Russian Federation


Главное достоинство альбома - лаконичность. В плане содержания это не самый выдающийся, чуть припанкованный блек.


Thanks:
(1) stormhatt,
Go to the top of the page
  Insert nick Quick quote
+Quote Post

Reply to this topicStart new topic
2 User(s) are reading this topic (2 Guests and 0 Anonymous Users)
0 Members:

 



- Lo-Fi Version Support form
Copyrights and abuse reports form
Time is now: 4th October 2022 - 00:33:16