Welcome Guest ( Log In | Register )

> Releases Upload / Добавление релизов

Добавить релиз тут / Click here to add release
Рекомендованные обменники / Recommended file shares

 
Reply to this topicStart new topic
> Living Sacrifice - Reborn (1997), Thrash/Death Metal/Metalcore (D)
post Sep 23 2022, 08:40:20
Post #1

Join my religion, or die
**************
Group: Металариец
Posts: 11,196
Releases: 1841
From: Питера
On Forums: 13 years 1 week
Thanks: 24356 time(s)
Russian Federation


(IMG:https://metalarea.org/images/audiocovers/2022_Sep/acov_tid369801_thumb.jpg)

*Artist: Living Sacrifice
*Album: Reborn
*Year: 1997
*Genre: Thrash/Death Metal/Metalcore
*Country: United States (IMG:https://metalarea.org/forum/style_images/flags/United%20States.png)
*Format: mp3@CBR320kbps
*Size: 104MB

Tracklist:
01. Reborn Empowered 03:48
02. Truth Solution 04:59
03. Threatened 05:08
04. Awakening 04:06
05. 180 04:55
06. No Longer 04:47
07. Something More 03:37
08. Sellout 03:39
09. Spirit Fall 03:48
10. Presence of God 03:44
11. Reject 03:34
12. Liar 02:27
******************************
Total playing time: 48:32

(IMG:https://metalarea.org/images/youtube.png)

Technical info
(IMG:https://metalarea.org/images/spectrogram/2022_Sep/d76e57c0de1ac3044b29805b2f18fec4.png)
Input File: 02 Truth Solution.mp3
Channels : 2
Sample Rate : 48000
Precision : 16-bit
Duration : 00:04:57.24 = 14267664 samples ~ 22293.2 CDDA sectors
File Size : 12.0M
Bit Rate : 323k
Sample Encoding: MPEG audio (layer I, II or III)
Comments :
Title=Truth Solution
Artist=Living Sacrifice
Album=1997 Reborn
Tracknumber=02/12
Year=1997
Genre=Metal



Register


Go to the top of the page
  Insert nick Quick quote
+Quote Post

Reply to this topicStart new topic
2 User(s) are reading this topic (2 Guests and 0 Anonymous Users)
0 Members:

 



- Lo-Fi Version Support form
Copyrights and abuse reports form
Time is now: 4th October 2022 - 01:40:29