Welcome Guest ( Log In | Register )

> Releases Upload / Добавление релизов

Добавить релиз тут / Click here to add release
Рекомендованные обменники / Recommended file shares

 
Reply to this topicStart new topic
> Living Sacrifice - Living Sacrifice [ep] (2000), Thrash/Death Metal/Metalcore (D)
post Sep 23 2022, 08:44:07
Post #1

Join my religion, or die
**************
Group: Металариец
Posts: 11,196
Releases: 1841
From: Питера
On Forums: 13 years 1 week
Thanks: 24356 time(s)
Russian Federation


(IMG:https://metalarea.org/images/audiocovers/2022_Sep/acov_tid369802_thumb.jpg)

*Artist: Living Sacrifice
*Album: Living Sacrifice [ep]
*Year: 2000
*Genre: Thrash/Death Metal/Metalcore
*Country: United States (IMG:https://metalarea.org/forum/style_images/flags/United%20States.png)
*Format: mp3@CBR320kbps
*Size: 20MB

Tracklist:
01. Bloodwork 03:53
02. Burn the End 05:12
******************************
Total playing time: 9:05

Preview 1
(IMG:https://metalarea.org/images/youtube.png)

Technical info
(IMG:https://metalarea.org/images/spectrogram/2022_Sep/42987460f407c5fad1cd674305dc8ccb.png)
Input File: 01 Bloodwork.mp3
Channels : 2
Sample Rate : 44100
Precision : 16-bit
Duration : 00:04:14.14 = 11207398 samples = 19060.2 CDDA sectors
File Size : 10.2M
Bit Rate : 322k
Sample Encoding: MPEG audio (layer I, II or III)
Comments :
Title=Bloodwork
Artist=Living Sacrifice
Album=2000 Living Sacrifice
Tracknumber=01/02
Year=2000
Genre=Metal



Register


Go to the top of the page
  Insert nick Quick quote
+Quote Post

Reply to this topicStart new topic
2 User(s) are reading this topic (2 Guests and 0 Anonymous Users)
0 Members:

 



- Lo-Fi Version Support form
Copyrights and abuse reports form
Time is now: 4th October 2022 - 01:54:57