Welcome Guest ( Log In | Register )

> Releases Upload / Добавление релизов

Добавить релиз тут / Click here to add release
Рекомендованные обменники / Recommended file shares

> Fecalith - War Has Begun [ep] (2022), Death Metal
post Sep 23 2022, 11:52:37
Post #1

Правь статус, ####!111
**************
Group: Металариец
Posts: 3,568
Releases: 2059
On Forums: 11 years 10 months
Thanks: 39325 time(s)
Russian Federation


(IMG:https://metalarea.org/images/audiocovers/2022_Sep/acov_tid369807_thumb.jpg)

*Artist: Fecalith
*Album: War Has Begun [ep]
*Year: 2022
*Genre: Death Metal
*Country: United States (IMG:https://metalarea.org/forum/style_images/flags/United%20States.png)
*Format: mp3@CBR320kbps
*Size: 39MB

Tracklist:
01.En to Pan 03:11
02.Battle Hymn 02:36
03.Tomb of the Hydes 04:07
04.In the Arms of Adonai 04:51
05.Atone for Death by Death 02:31
******************************
Total playing time: 17:16

(IMG:https://metalarea.org/images/youtube.png)

Technical info
(IMG:https://metalarea.org/images/spectrogram/2022_Sep/7f6f493ec110dd9c49a9d072ee1814e0.png)
Input File: 02 - Battle Hymn.mp3
Channels : 2
Sample Rate : 44100
Precision : 16-bit
Duration : 00:02:36.20 = 6888288 samples = 11714.8 CDDA sectors
File Size : 6.32M
Bit Rate : 324k
Sample Encoding: MPEG audio (layer I, II or III)
Comments :
Title=Battle Hymn
Artist=Fecalith
Album=War Has Begun
Tracknumber=02
Year=2022
Genre=Death Metal



Register


Go to the top of the page
  Insert nick Quick quote
+Quote Post
 
Start new topic
Replies (1 - 4)
post Sep 23 2022, 13:06:14
Post #2

Ти ж хотів землі цієї, Тож тепер змішайся з нею Станеш сам моєй землею
**************
Group: Металариец
Posts: 2,772
Releases: 0
From: Україна
On Forums: 13 years 8 months
Thanks: 2427 time(s)
Ukraine


Фикалыч, ты ли это?)) (IMG:style_emoticons/default/m1801.gif) (IMG:style_emoticons/default/m1801.gif) (IMG:style_emoticons/default/alkash.gif) (IMG:style_emoticons/default/1488.gif) (IMG:style_emoticons/default/15.gif) ( сорян, угорел от названия)


Thanks:
(1) karut,
Go to the top of the page
  Insert nick Quick quote
+Quote Post
post Sep 23 2022, 14:20:59
Post #3

Group: Подсевший
Posts: 24
Releases: 0
From: луцк
On Forums: 14 years 2 months
Thanks: 7 time(s)
Russian Federation


Обложка и название альбома ненавязчиво намекают на начавшуюся мобилизацию
Go to the top of the page
  Insert nick Quick quote
+Quote Post
post Sep 23 2022, 19:45:28
Post #4

Три Литра
***
Group: Завсегдатай
Posts: 206
Releases: 1
From: Переделкино
On Forums: 13 years 10 months
Thanks: 20 time(s)
Russian Federation


У парней 3 миньона, быстрый дез метал,приятныйи напрягает. наэйпл мюзик в лосе!

ЦИТАТА(kombinator @ Sep 23 2022, 21:44:48) *
У парней 3 миньона, быстрый дез метал,приятныйи напрягает. наэйпл мюзик в лосе!

НЕ напрягает,слушается легко
Go to the top of the page
  Insert nick Quick quote
+Quote Post
post Sep 24 2022, 11:12:02
Post #5

Мегаманьяк
***********
Group: Металариец
Posts: 1,817
Releases: 1
From: APATIN, SERBIA, АПАТИН, СЕРБИЯ
On Forums: 14 years 11 months
Thanks: 5414 time(s)



Flac

Register


Thanks:
(2) Marek, wreak,
Go to the top of the page
  Insert nick Quick quote
+Quote Post

Reply to this topicStart new topic
2 User(s) are reading this topic (2 Guests and 0 Anonymous Users)
0 Members:

 



- Lo-Fi Version Support form
Copyrights and abuse reports form
Time is now: 4th October 2022 - 00:53:44