Welcome Guest ( Log In | Register )

> Thou Art Lord - Daemoniorum [ep] (2022), Black Metal (D)
post Sep 23 2022, 11:59:22
Post #1

Правь статус, ####!111
**************
Group: Металариец
Posts: 4,117
Releases: 2584
On Forums: 12 years 2 weeks
Thanks: 47047 time(s)
Russian Federation


(IMG:https://metalarea.org/images/audiocovers/2022_Sep/acov_tid369808_thumb.jpg)

*Artist: Thou Art Lord
*Album: Daemoniorum [ep]
*Year: 2022
*Genre: Black Metal
*Country: Greece (IMG:https://metalarea.org/forum/style_images/flags/Greece.png)
*Format: mp3@CBR320kbps
*Size: 25MB

Tracklist:
1.Hades 03:27
2.The Black Halo 03:02
3.Fire, Chaos and Doom 02:32
******************************
Total playing time: 9:01


(IMG:https://metalarea.org/images/youtube.png)

Technical info
(IMG:https://metalarea.org/images/spectrogram/2022_Sep/b5e7cab3b7720012065efc67e8a04901.png)
Input File: 02 - The Black Halo.mp3
Channels : 2
Sample Rate : 44100
Precision : 16-bit
Duration : 00:03:02.30 = 8039210 samples = 13672.1 CDDA sectors
File Size : 7.49M
Bit Rate : 329k
Sample Encoding: MPEG audio (layer I, II or III)
Comments :
Title=The Black Halo
Artist=Thou Art Lord
Album=Daemoniorum
Tracknumber=02
Year=2022
Genre=Black Metal



Register


Go to the top of the page
  Insert nick Quick quote
+Quote Post
 
Start new topic
Replies (1 - 9)
post Sep 23 2022, 12:32:39
Post #2

Правь статус, ####!111
**************
Group: Металариец
Posts: 4,117
Releases: 2584
On Forums: 12 years 2 weeks
Thanks: 47047 time(s)
Russian Federation


FLAC 65MB
Register


Go to the top of the page
  Insert nick Quick quote
+Quote Post
post Sep 23 2022, 14:22:11
Post #3

______________
*********
Group: Металариец
Posts: 974
Releases: 0
On Forums: 3 years 1 month
Thanks: 292 time(s)
Unknown


Чересчур немрачно и риффы довольно заезженные.
Go to the top of the page
  Insert nick Quick quote
+Quote Post
post Sep 23 2022, 14:47:02
Post #4

мизантроп же
**********
Group: Металариец
Posts: 1,238
Releases: 8
From: Москва
On Forums: 15 years 8 months
Thanks: 1223 time(s)
Russian Federation


Хорошо и бодро, но мало.
Go to the top of the page
  Insert nick Quick quote
+Quote Post
post Sep 23 2022, 18:55:11
Post #5

Group: Дух
Posts: 9
Releases: 0
On Forums: 4 years 6 months
Thanks: 3 time(s)
United States


Could anyone post a MediaFire link? Thanks!
Go to the top of the page
  Insert nick Quick quote
+Quote Post
post Sep 23 2022, 19:55:31
Post #6

Group: Дух
Posts: 9
Releases: 0
On Forums: 4 years 6 months
Thanks: 3 time(s)
United States


QUOTE(GorAtheist @ Sep 23 2022, 19:07:38) *
320kbps


THANK YOU!!!
Go to the top of the page
  Insert nick Quick quote
+Quote Post
post Sep 23 2022, 22:21:57
Post #7

Добрейшей души Мегаманьяк
**************
Group: Металариец
Posts: 2,077
Releases: 0
From: Bashkortostan, Таптыҡ
On Forums: 14 years 9 months
Thanks: 994 time(s)
Russian Federation


Первая песня ROTTING CHRIST кокойто, а потом намано. Латно, ждём альбом
Go to the top of the page
  Insert nick Quick quote
+Quote Post
post Sep 23 2022, 23:23:58
Post #8

Ёлд ХеллоВяйне
Group Icon
Group: V.I.P
Posts: 33,816
Releases: 144
From: Питер
On Forums: 16 years 1 month
Thanks: 21252 time(s)
Russian Federation


QUOTE(asog @ 24th September 2022 - 00:21:57) *
Первая песня ROTTING CHRIST кокойто


Вторая тоже, но в целом вздрыжне.
Go to the top of the page
  Insert nick Quick quote
+Quote Post
post Sep 24 2022, 08:50:42
Post #9

Шесть Литров
******
Group: Металариец
Posts: 647
Releases: 18
On Forums: 16 years 8 months
Thanks: 463 time(s)
Russian Federation


Что-то в этом году очень полюбили слово "Halo" металлисты
Go to the top of the page
  Insert nick Quick quote
+Quote Post
post Sep 24 2022, 08:58:00
Post #10

Group: Подсевший
Posts: 10
Releases: 0
On Forums: 2 months 1 week
Thanks: 1 time(s)
Russian Federation


Третий трек - Моторхёд натуральный. И мне кажется, глупо сегодня такие тексты писать, и даже очень.
Лучше уж Stay clean, чем всё это.

Go to the top of the page
  Insert nick Quick quote
+Quote Post

Reply to this topicStart new topic
1 User(s) are reading this topic (1 Guests and 0 Anonymous Users)
0 Members:

 



- Lo-Fi Version Support form
Copyrights and abuse reports form
Time is now: 3rd December 2022 - 00:27:13