Welcome Guest ( Log In | Register )

> Cadaverous - Remnants Of Violence (2022), Old School Death Metal
post Sep 23 2022, 13:55:21
Post #1

Правь статус, ####!111
**************
Group: Металариец
Posts: 30,923
Releases: 22794
From: Г.Харьков
On Forums: 10 years 6 months
Thanks: 477011 time(s)
Unknown


(IMG:https://metalarea.org/images/audiocovers/2022_Sep/acov_tid369810_thumb.jpg)

*Artist: Cadaverous
*Album: Remnants Of Violence
*Year: 2022
*Genre: Old School Death Metal
*Country: United States (IMG:https://metalarea.org/forum/style_images/flags/United%20States.png)
*Format: mp3@CBR320kbps
*Size: 99MB

Tracklist:
1. The Morbidity of Death (Intro)
2. Delectable Prospective
3. Unfathomable Depths
4. Slam the Coffin Shut
5. I Want to Kill
6. Burnt Remains
7. A Rotted Pile of Pedophiles
8. Bludgeoned
9. Rot in the Crypt
10. Sensory Deprivation
11. Remnants of Violence
******************************
Total playing time: 42:07




Extended info
Xander Farrington Bass
See also: Tusk, ex-Killzone, ex-Archarus
Dre Duarte Drums
See also: Archarus, ex-Killzone, ex-Occult Deceiver, ex-Conjurer (live)
Jesse Curtis Vocals, Guitars
See also: Tusk, ex-Venality, ex-Heavy Lies the Crown, ex-Primordium


Technical info
(IMG:https://metalarea.org/images/spectrogram/2022_Sep/bb2a454b57e2e33ea5a926414c00d546.png)
Input File: Cadaverous - REMNANTS OF VIOLENCE - 09 Rot In The Crypt.mp3
Channels : 2
Sample Rate : 44100
Precision : 16-bit
Duration : 00:04:18.86 = 11415770 samples = 19414.6 CDDA sectors
File Size : 10.6M
Bit Rate : 327k
Sample Encoding: MPEG audio (layer I, II or III)
Comments :
Title=Rot In The Crypt
Artist=Cadaverous
Album=REMNANTS OF VIOLENCE
Tracknumber=9
Year=2022



Register


Go to the top of the page
  Insert nick Quick quote
+Quote Post
 
Start new topic
Replies (1 - 4)
post Sep 23 2022, 21:32:20
Post #2

Правь статус, ####!111
**************
Group: Металариец
Posts: 30,923
Releases: 22794
From: Г.Харьков
On Forums: 10 years 6 months
Thanks: 477011 time(s)
Unknown


FLAC (Tracks) 547 mb
Register


Thanks:
Go to the top of the page
  Insert nick Quick quote
+Quote Post
post Sep 24 2022, 05:40:15
Post #3

кручу наждак
**************
Group: Металариец
Posts: 5,805
Releases: 107
From: Самара
On Forums: 12 years 6 months
Thanks: 4550 time(s)
Russian Federation


Убойное старошкольное рубилово строго по классической Флориде, просто таки бальзам на сердце любого олдскульщика. Мэтры могут быть спокойны - жанр ещё жив.


Thanks:
Go to the top of the page
  Insert nick Quick quote
+Quote Post
post Sep 24 2022, 11:15:18
Post #4

тебе 32, а ты все реверсами балуешься
**************
Group: Металариец
Posts: 2,126
Releases: 4
On Forums: 14 years 4 months
Thanks: 780 time(s)
Russian Federation


Вступление - дополнительная пытка перед началом рубилова.

Выкинул бы первый трек, или убрал бы этот маятник из одного уха в другое, и получилась бы полная конфета.
Go to the top of the page
  Insert nick Quick quote
+Quote Post
post Sep 24 2022, 11:30:59
Post #5

кручу наждак
**************
Group: Металариец
Posts: 5,805
Releases: 107
From: Самара
On Forums: 12 years 6 months
Thanks: 4550 time(s)
Russian Federation


ЦИТАТА(Foneg @ Sep 24 2022, 11:15:18) *
Вступление - дополнительная пытка перед началом рубилова.

Выкинул бы первый трек, или убрал бы этот маятник из одного уха в другое, и получилась бы полная конфета.

Согласен, просто какое-то адище для ушей. Не выдержал, скипнул.


Thanks:
(1) Foneg,
Go to the top of the page
  Insert nick Quick quote
+Quote Post

Reply to this topicStart new topic
2 User(s) are reading this topic (2 Guests and 0 Anonymous Users)
0 Members:

 



- Lo-Fi Version Support form
Copyrights and abuse reports form
Time is now: 3rd December 2022 - 16:36:29