Welcome Guest ( Log In | Register )

> И неформату есть предел.

Рэп/хип-хоп/шансон/поп удаляются. Для них есть свои порталы.

 
Reply to this topicStart new topic
> Robes Of Snow - The Wooden Wheel: The Crones Of Autumn (2022), Ambient/Folk (D6)
post Sep 25 2022, 08:33:58
Post #1

Литр
*
Group: Подсевший
Posts: 55
Releases: 44
From: Новосибирск
On Forums: 6 months 3 weeks
Thanks: 431 time(s)
Russian Federation


(IMG:https://metalarea.org/images/audiocovers/2022_Sep/acov_tid369878_thumb.jpg)

*Artist: Robes Of Snow
*Album: The Wooden Wheel: The Crones Of Autumn
*Year: 2022
*Genre: Ambient/Folk
*Country: United States (IMG:https://metalarea.org/forum/style_images/flags/United%20States.png)
*Format: mp3@CBR320kbps
*Size: 148MB

Tracklist:
1. Autumn Solstice 03:19
2. As the Trail of the Fallen Unfolds... 02:33
3. Woodland Echoes 09:43
4. Susurrus Winds 01:08
5. State of Change 07:20
6. Leaves Rich in Color 05:43
7. The Harvest and the Horrors 03:43
8. The Face in the Trees 03:19
9. Will Your Mask Fool the Spirits? 06:34
10. Beaver Moon / The Dam-Builders 03:00
11. The Death of Autumn 02:36
12. You Guide Us to the Top of the Mountain 04:24
13. Wilderness in Autumnity 08:25
******************************
Total playing time: 1:01:47



Extended info


Technical info
(IMG:https://metalarea.org/images/spectrogram/2022_Sep/56aadd2de8f5e63094217dd05888ff2a.png)
Input File: Robes of Snow - The Wooden Wheel- The Crones of Autumn - 13 Wilderness in Autumnity.mp3
Channels : 2
Sample Rate : 44100
Precision : 16-bit
Duration : 00:08:25.34 = 22285494 samples = 37900.5 CDDA sectors
File Size : 20.5M
Bit Rate : 324k
Sample Encoding: MPEG audio (layer I, II or III)
Comments :
Title=Wilderness in Autumnity
Artist=Robes of Snow
Album=The Wooden Wheel: The Crones of Autumn
Tracknumber=13
Year=2022



Register


Thanks:
Go to the top of the page
  Insert nick Quick quote
+Quote Post

Reply to this topicStart new topic
1 User(s) are reading this topic (1 Guests and 0 Anonymous Users)
0 Members:

 



- Lo-Fi Version Support form
Copyrights and abuse reports form
Time is now: 6th December 2022 - 21:31:30