Welcome Guest ( Log In | Register )

> Vandr - Beyond The Black River (2022), Progressive/Blackened Death Metal
post Sep 27 2022, 11:31:29
Post #1

Правь статус, ####!111
**************
Group: Металариец
Posts: 4,128
Releases: 2594
On Forums: 12 years 2 weeks
Thanks: 47278 time(s)
Russian Federation


(IMG:https://metalarea.org/images/audiocovers/2022_Sep/acov_tid369942_thumb.jpg)

*Artist: Vandr
*Album: Beyond The Black River
*Year: 2022
*Genre: Progressive/Blackened Death Metal
*Country: United Kingdom (IMG:https://metalarea.org/forum/style_images/flags/United%20Kingdom.png)
*Format: mp3@CBR320kbps
*Size: 68MB

Tracklist:
1.Beyond The Black River 04:53
2.Unto Múspellsheimr, Realm Ov Fire and Void 04:24
3.In Awe Ov Cerberus 06:18
4.Tartarus, Prison Ov Titan 06:40
5.Gallows Fall 07:49
******************************
Total playing time: 30:04



Technical info
(IMG:https://metalarea.org/images/spectrogram/2022_Sep/50c731d06c2060b62d5f3d3a0f36acab.png)
Input File: 02 - Unto Múspellsheimr, Realm ov Fire and Void.mp3
Channels : 2
Sample Rate : 44100
Precision : 16-bit
Duration : 00:04:24.09 = 11646325 samples = 19806.7 CDDA sectors
File Size : 10.8M
Bit Rate : 328k
Sample Encoding: MPEG audio (layer I, II or III)
Comments :
Title=Unto Múspellsheimr, Realm ov Fire and Void
Artist=Vandr
Album=Beyond the Black River
Tracknumber=02
Year=2021
Genre=Melodic Death/Black Metal



Register


Go to the top of the page
  Insert nick Quick quote
+Quote Post
 
Start new topic
Replies (1 - 3)
post Sep 28 2022, 16:44:43
Post #2

Common dweller of hell
**************
Group: Металариец
Posts: 4,497
Releases: 12
From: Dnipro
On Forums: 14 years 4 months
Thanks: 1781 time(s)
Ukraine


Кстати довольно таки интересный альбом (IMG:style_emoticons/default/20.gif)


Thanks:
Go to the top of the page
  Insert nick Quick quote
+Quote Post
post Oct 1 2022, 00:40:12
Post #3

Это просто место… где все подошло к концу.
**************
Group: Металариец
Posts: 6,711
Releases: 0
From: Страны Мамонтов
On Forums: 15 years 9 months
Thanks: 2681 time(s)
Antarctica


ЦИТАТА(isvili @ Sep 28 2022, 18:44:43) *
Кстати довольно таки интересный альбом (IMG:style_emoticons/default/20.gif)

Кстати, да
Go to the top of the page
  Insert nick Quick quote
+Quote Post
post Oct 15 2022, 12:48:21
Post #4
BAN
RO till
Dec 7 2022, 19:26:25



ПРогрессива не наблюдается, как блэкх дэтх - неплохо, можно послушать.
Go to the top of the page
  Insert nick Quick quote
+Quote Post

Reply to this topicStart new topic
2 User(s) are reading this topic (2 Guests and 0 Anonymous Users)
0 Members:

 



- Lo-Fi Version Support form
Copyrights and abuse reports form
Time is now: 3rd December 2022 - 17:59:58