Welcome Guest ( Log In | Register )

> Within Destruction - Lotus (2022), Deathcore (D6)
post Sep 29 2022, 12:06:24
Post #1

Serial Uploader
Group Icon
Group: V.I.P
Posts: 39,289
Releases: 37423
From: Lithuania
On Forums: 14 years 5 months
Thanks: 469263 time(s)
Lithuania


(IMG:https://metalarea.org/images/audiocovers/2022_Sep/acov_tid370013_thumb.jpg)

*Artist: Within Destruction
*Album: Lotus
*Year: 2022
*Genre: Deathcore
*Country: Slovenia (IMG:https://metalarea.org/forum/style_images/flags/Slovenia.png)
*Format: mp3@CBR320kbps
*Size: 95MB

Tracklist:
1. Lotus 03:32
2. Toxic 03:34
3. Nightmare 03:48
4. Survival 03:19
5. Scars 03:41
6. Revenge 03:12
7. Dying World 03:31
8. Dehumanized 03:13
9. Illusions 03:40
10. Neo-Yakuza 03:10
11. P.O.P. 03:13
12. Ultima 03:10
******************************
Total playing time: 41:03

(IMG:https://metalarea.org/images/myspace.png)



(IMG:https://metalarea.org/images/youtube.png)

Technical info
(IMG:https://metalarea.org/images/spectrogram/2022_Sep/98e5e836d79b616f4695692eb613a474.png)
Input File: 02 - Toxic.mp3
Channels : 2
Sample Rate : 44100
Precision : 16-bit
Duration : 00:03:34.00 = 9437400 samples = 16050 CDDA sectors
File Size : 8.74M
Bit Rate : 327k
Sample Encoding: MPEG audio (layer I, II or III)
Comments :
Title=Toxic
Artist=Within Destruction
Album=Lotus
Tracknumber=2/12
Year=2022
Discnumber=1/1



Register


Go to the top of the page
  Insert nick Quick quote
+Quote Post
 
Start new topic
Replies (1 - 5)
post Sep 29 2022, 17:56:54
Post #2

Тридцать три года на борту "тяжёлого" крейсера
**************
Group: Металариец
Posts: 2,963
Releases: 0
From: Питер
On Forums: 15 years 5 months
Thanks: 938 time(s)
Russian Federation


неплохой такой модерновый deathcore, качево
Go to the top of the page
  Insert nick Quick quote
+Quote Post
post Sep 29 2022, 21:13:31
Post #3

Ледоруб
**************
Group: Металариец
Posts: 31,685
Releases: 0
From: Санкт-Петербург
On Forums: 13 years 2 months
Thanks: 11245 time(s)
Russian Federation


ЦИТАТА(sadmannn @ 29th September 2022 - 19:56:54) *
модерновый deathcore

Это как?
Go to the top of the page
  Insert nick Quick quote
+Quote Post
post Sep 30 2022, 02:49:23
Post #4

королева бала
**********
Group: Металариец
Posts: 1,170
Releases: 0
On Forums: 15 years 7 months
Thanks: 768 time(s)
Russian Federation


Ждал этот альбом. Предыдущие все отличные были, посмотрим что у нас тут..
Go to the top of the page
  Insert nick Quick quote
+Quote Post
post Sep 30 2022, 17:26:05
Post #5

королева бала
**********
Group: Металариец
Posts: 1,170
Releases: 0
On Forums: 15 years 7 months
Thanks: 768 time(s)
Russian Federation


послушал альбом, гoвно. в этот раз, какой-то пресный линкинпарк на синтоле, слушать практически невозможно. куда-то всё веселье и угар делись, печаль..


Thanks:
(1) apries,
Go to the top of the page
  Insert nick Quick quote
+Quote Post
post Oct 1 2022, 22:29:37
Post #6

Ледоруб
**************
Group: Металариец
Posts: 31,685
Releases: 0
From: Санкт-Петербург
On Forums: 13 years 2 months
Thanks: 11245 time(s)
Russian Federation


ЦИТАТА(6666666 @ 29th September 2022 - 23:13:31) *
Это как?

Впрочем, это неважно, так как альбом, в первую очередь, мусор, сыгранный на одной струне и с тупой электроникой.


Thanks:
(1) apries,
Go to the top of the page
  Insert nick Quick quote
+Quote Post

Reply to this topicStart new topic
1 User(s) are reading this topic (1 Guests and 0 Anonymous Users)
0 Members:

 



- Lo-Fi Version Support form
Copyrights and abuse reports form
Time is now: 30th November 2022 - 09:18:43