Welcome Guest ( Log In | Register )

> Caïnan Dawn - Lagu (2022), Black Metal
post Sep 29 2022, 12:11:38
Post #1

Serial Uploader
Group Icon
Group: V.I.P
Posts: 39,314
Releases: 37426
From: Lithuania
On Forums: 14 years 5 months
Thanks: 469414 time(s)
Lithuania


(IMG:https://metalarea.org/images/audiocovers/2022_Sep/acov_tid370014_thumb.jpg)

*Artist: Caïnan Dawn
*Album: Lagu
*Year: 2022
*Genre: Black Metal
*Country: France (IMG:https://metalarea.org/forum/style_images/flags/France.png)
*Format: mp3@CBR320kbps
*Size: 128MB

Tracklist:
1. Nun 02:16
2. Myctophidae 06:08
3. Y'ha-Nthlei 06:25
4. Okeanos 06:34
5. Atlantis 08:10
6. Septima 07:26
7. Apnea 06:28
8. Lagu 04:39
9. Profundum 07:29
******************************
Total playing time: 55:35




(IMG:https://metalarea.org/images/youtube.png)

Technical info
(IMG:https://metalarea.org/images/spectrogram/2022_Sep/e5a3a06ade89abe189cb2bf67efbbfd4.png)
Input File: 02 - Myctophidae.mp3
Channels : 2
Sample Rate : 44100
Precision : 16-bit
Duration : 00:06:08.00 = 16228800 samples = 27600 CDDA sectors
File Size : 14.9M
Bit Rate : 324k
Sample Encoding: MPEG audio (layer I, II or III)
Comments :
Title=Myctophidae
Artist=Caïnan Dawn
Album=Lagu
Tracknumber=2/9
Year=2022
Discnumber=1/1



Register


Go to the top of the page
  Insert nick Quick quote
+Quote Post
 
Start new topic
Replies (1 - 2)
post Nov 24 2022, 08:05:09
Post #2

Мегаманьяк
***********
Group: Металариец
Posts: 1,600
Releases: 10
On Forums: 13 years 11 months
Thanks: 174 time(s)
Germany


Please, re-upload.
Go to the top of the page
  Insert nick Quick quote
+Quote Post
post Nov 24 2022, 10:51:40
Post #3

Слесарь 6-го разряда.
***
Group: Завсегдатай
Posts: 266
Releases: 60
From: Беларусь, Минск.
On Forums: 10 years 11 months
Thanks: 668 time(s)
Belarus


320
Register


Thanks:
Go to the top of the page
  Insert nick Quick quote
+Quote Post

Reply to this topicStart new topic
2 User(s) are reading this topic (2 Guests and 0 Anonymous Users)
0 Members:

 



- Lo-Fi Version Support form
Copyrights and abuse reports form
Time is now: 2nd December 2022 - 11:28:21