Welcome Guest ( Log In | Register )

> Hexed - Pagans Rising (2022), Melodic/Progressive Metal (D5)
post Sep 29 2022, 12:22:37
Post #1

Serial Uploader
Group Icon
Group: V.I.P
Posts: 39,534
Releases: 37658
From: Lithuania
On Forums: 14 years 7 months
Thanks: 473860 time(s)
Lithuania


(IMG:https://metalarea.org/images/audiocovers/2022_Sep/acov_tid370016_thumb.jpg)

*Artist: Hexed
*Album: Pagans Rising
*Year: 2022
*Genre: Melodic/Progressive Metal
*Country: Sweden (IMG:https://metalarea.org/forum/style_images/flags/Sweden.png)
*Format: mp3@CBR320kbps
*Size: 115MB

Tracklist:
1. Pagans Rising 05:15
2. Resurrection 04:18
3. Stigma Diaboli 05:49
4. Repentance 04:51
5. Incantation 04:26
6. Prophecy 04:58
7. Symphony of Tragedy 05:32
8. Blasphemy 04:54
9. Dark Storm 04:25
10. Moorfield 04:29
******************************
Total playing time: 48:57


Preview 2


(IMG:https://metalarea.org/images/youtube.png)

Technical info
(IMG:https://metalarea.org/images/spectrogram/2022_Sep/c213e616927a0cb1cb2ef192e8a5d270.png)
Input File: 02 - Resurrection.mp3
Channels : 2
Sample Rate : 44100
Precision : 16-bit
Duration : 00:04:18.00 = 11377800 samples = 19350 CDDA sectors
File Size : 10.7M
Bit Rate : 331k
Sample Encoding: MPEG audio (layer I, II or III)
Comments :
Title=Resurrection
Artist=HEXED
Album=Pagans Rising
Tracknumber=2/10
Year=2022
Discnumber=1/1



Register


Go to the top of the page
  Insert nick Quick quote
+Quote Post
 
Start new topic
Replies (1 - 3)
post Oct 1 2022, 00:24:56
Post #2

Это просто место… где все подошло к концу.
**************
Group: Металариец
Posts: 6,724
Releases: 0
From: Страны Мамонтов
On Forums: 15 years 11 months
Thanks: 2692 time(s)
Antarctica


Послушать еще не успел, но обложка - моёувожение (IMG:style_emoticons/default/crazy.gif)
Go to the top of the page
  Insert nick Quick quote
+Quote Post
post Nov 24 2022, 08:11:28
Post #3

Мегаманьяк
***********
Group: Металариец
Posts: 1,623
Releases: 10
On Forums: 14 years 1 month
Thanks: 175 time(s)
Germany


Please, re-upload.
Go to the top of the page
  Insert nick Quick quote
+Quote Post
post Nov 24 2022, 09:55:01
Post #4

Мегаманьяк
***********
Group: Металариец
Posts: 1,614
Releases: 585
From: Саранск
On Forums: 11 years 8 months
Thanks: 5974 time(s)
Russian Federation


Register


Thanks:
(1) deathic,
Go to the top of the page
  Insert nick Quick quote
+Quote Post

Reply to this topicStart new topic
1 User(s) are reading this topic (1 Guests and 0 Anonymous Users)
0 Members:

 



- Lo-Fi Version Support form
Copyrights and abuse reports form
Time is now: 1st February 2023 - 09:20:23