Welcome Guest ( Log In | Register )

Объявления

* gmail.com упорно продолжает считать почту с нас "unsolicited" и отбивает в том числе и письма активации, поэтому просьба использовать альтернативные почтовые ящики.
------------
* gmail.com continues reject all mail from us as "unsolicited" (activation mails too) therefore please use alternate mail servers.
> Sonic Flower - Me And My Bellbottom Blues (2022), Psychedelic Stoner/Doom Metal
post Sep 29 2022, 15:24:46
Post #1

Serial Uploader
Group Icon
Group: V.I.P
Posts: 42,413
Releases: 40482
From: Lithuania
On Forums: 15 years 10 months
Thanks: 517428 time(s)
Lithuania


(IMG:https://metalarea.org/images/audiocovers/2022_Sep/acov_tid370043_thumb.jpg)

*Artist: Sonic Flower
*Album: Me And My Bellbottom Blues
*Year: 2022
*Genre: Psychedelic Stoner/Doom Metal
*Country: Japan (IMG:https://metalarea.org/forum/style_images/flags/Japan.png)
*Format: mp3@CBR320kbps
*Size: 108MB

Tracklist:
1. Swineherd 06:58
2. Love Like Rubber 05:33
3. Black Sheep 06:28
4. Captain Frost 03:40
5. Quicksand 05:58
6. Poor Girl 04:00
7. Sonic Flower 07:59
******************************
Total playing time: 40:36

(IMG:https://metalarea.org/images/myspace.png)


Technical info
(IMG:https://metalarea.org/images/spectrogram/2022_Sep/7dcec555702ec3f094cdc0f74dd91f95.png)
Input File: 02 - Love Like Rubber.mp3
Channels : 2
Sample Rate : 44100
Precision : 16-bit
Duration : 00:05:32.00 = 14641200 samples = 24900 CDDA sectors
File Size : 13.5M
Bit Rate : 325k
Sample Encoding: MPEG audio (layer I, II or III)
Comments :
Title=Love Like Rubber
Artist=Sonic Flower
Album=Me and My Bellbottom Blues
Tracknumber=2
Year=2022
Discnumber=1



Register


Go to the top of the page
  Insert nick Quick quote
+Quote Post
 
Start new topic
Replies (1 - 4)
post Sep 29 2022, 17:28:20
Post #2

Правь статус, ####!111
**************
Group: Металариец
Posts: 55,796
Releases: 1189
On Forums: 14 years 10 months
Thanks: 54545 time(s)
Russian Federation


Большое спасибо, ждал. Проект Tatsu Mikami(Church of Misery).
Go to the top of the page
  Insert nick Quick quote
+Quote Post
post Sep 30 2022, 14:22:54
Post #3

Маньяк
**********
Group: Металариец
Posts: 1,175
Releases: 0
From: Нижний Новгород
On Forums: 17 years 9 months
Thanks: 466 time(s)
Russian Federation



Go to the top of the page
  Insert nick Quick quote
+Quote Post
post Oct 2 2022, 12:31:51
Post #4

Правь статус, ####!111
**************
Group: Металариец
Posts: 55,796
Releases: 1189
On Forums: 14 years 10 months
Thanks: 54545 time(s)
Russian Federation


Наишикарнейше! (IMG:style_emoticons/default/20.gif) Пространные джем соло, блюз, гаражный рок, стоунер, дум, выразительный вокал, вайбы Сhurch Of Misery - всё это смешано в один флакон. Альбом как стартует с места в карьер, так и не отпускает до самого окончания - драйв, кач, угар обеспечены. Красотень!

Скучающим по отсутствию новья от основного проекта Миками - хватайте и наслаждайтесь!


Thanks:
(1) ern1kkk,
Go to the top of the page
  Insert nick Quick quote
+Quote Post
post Jul 3 2023, 09:07:37
Post #5

Правь статус, ####!111
**************
Group: Металариец
Posts: 3,308
Releases: 0
On Forums: 15 years 2 months
Thanks: 1633 time(s)
South Korea


Preview (or purchase):
Go to the top of the page
  Insert nick Quick quote
+Quote Post

Reply to this topicStart new topic
1 User(s) are reading this topic (1 Guests and 0 Anonymous Users)
0 Members:

 



- Lo-Fi Version Support form
Copyrights and abuse reports form
Time is now: 23rd April 2024 - 16:30:12