Welcome Guest ( Log In | Register )

> Eclesios - Halls Of Salvation (2022), Black/Death Metal
post Sep 29 2022, 16:00:42
Post #1

Serial Uploader
Group Icon
Group: V.I.P
Posts: 39,314
Releases: 37426
From: Lithuania
On Forums: 14 years 5 months
Thanks: 469415 time(s)
Lithuania


(IMG:https://metalarea.org/images/audiocovers/2022_Sep/acov_tid370049_thumb.jpg)

*Artist: Eclesios
*Album: Halls Of Salvation
*Year: 2022
*Genre: Black/Death Metal
*Country: Germany (IMG:https://metalarea.org/forum/style_images/flags/Germany.png)
*Format: mp3@CBR320kbps
*Size: 84MB

Tracklist:
1. Halls of Salvation 09:13
2. Eclesios 07:33
3. N.O.S. 08:41
4. Death Chiming 05:52
5. Nuclear Vulva 05:09
******************************
Total playing time: 36:28



(IMG:https://metalarea.org/images/youtube.png)

Technical info
(IMG:https://metalarea.org/images/spectrogram/2022_Sep/0889bc38101150915ffc8c484696b6e1.png)
Input File: 02. Eclesios.mp3
Channels : 2
Sample Rate : 44100
Precision : 16-bit
Duration : 00:07:33.75 = 20010331 samples = 34031.2 CDDA sectors
File Size : 18.3M
Bit Rate : 322k
Sample Encoding: MPEG audio (layer I, II or III)
Comments :
Title=Eclesios
Artist=Eclesios
Album=Halls of Salvation
Tracknumber=2/5
Year=2022
Genre=Black Metal, Death Metal
Discnumber=1/1



Register


Go to the top of the page
  Insert nick Quick quote
+Quote Post
 
Start new topic
Replies (1 - 2)
post Nov 24 2022, 08:40:23
Post #2

Мегаманьяк
***********
Group: Металариец
Posts: 1,600
Releases: 10
On Forums: 13 years 11 months
Thanks: 174 time(s)
Germany


Please, re-upload.
Go to the top of the page
  Insert nick Quick quote
+Quote Post
post Nov 24 2022, 10:55:52
Post #3

Слесарь 6-го разряда.
***
Group: Завсегдатай
Posts: 266
Releases: 60
From: Беларусь, Минск.
On Forums: 10 years 11 months
Thanks: 668 time(s)
Belarus


320
Register


Thanks:
(1) deathic,
Go to the top of the page
  Insert nick Quick quote
+Quote Post

Reply to this topicStart new topic
3 User(s) are reading this topic (2 Guests and 0 Anonymous Users)
1 Members: 9158533668

 



- Lo-Fi Version Support form
Copyrights and abuse reports form
Time is now: 2nd December 2022 - 11:46:07