Welcome Guest ( Log In | Register )

> Soul Dissolution - 空 (2022), Atmospheric Post-Black Metal (D6)
post Sep 29 2022, 17:44:28
Post #1

Правь статус, ####!111
**************
Group: Металариец
Posts: 5,724
Releases: 5240
From: Одесса
On Forums: 14 years 6 months
Thanks: 61408 time(s)
Ukraine


(IMG:http://metalarea.org/images/audiocovers/2022_Sep/acov_tid370061_thumb.jpg)

*Artist: Soul Dissolution
*Album: 空
*Year: 2022
*Genre: Atmospheric Post-Black Metal
*Country: Belgium (IMG:http://metalarea.org/forum/style_images/flags/Belgium.png)
*Format: mp3@CBR320kbps
*Size: 92MB

Tracklist:
1. 空 I 07:23
2. 空 II 05:43
3. 空 III 09:09
4. The Absolving Tide 08:05
5. With Open Heart 08:10
******************************
Total playing time: 38:30



Extended info
A concept album about the sky (空) and its many facets

Line - up:

Jabawock - Guitars, Bass, Vocals, Lyrics (Ah Ciliz, L'Hiver en Deuil, Marche Funèbre)
Acharan - Vocals (lead) (L'Hiver en Deuil, ex-Sarin)
Threnos - Drums (L'Hiver en Deuil, ex-Spectral Damnation)


Technical info
(IMG:http://metalarea.org/images/spectrogram/2022_Sep/13b3cd056976c162acbdb3167a2b6a51.png)
Input File: 04 - The Absolving Tide.mp3
Channels : 2
Sample Rate : 44100
Precision : 16-bit
Duration : 00:08:05.00 = 21388500 samples = 36375 CDDA sectors
File Size : 19.5M
Bit Rate : 321k
Sample Encoding: MPEG audio (layer I, II or III)
Comments :
Title=The Absolving Tide
Artist=Soul Dissolution
Album=SORA
Tracknumber=4
Year=2022
Genre=Atmospheric Post-Black Metal



Register


Go to the top of the page
  Insert nick Quick quote
+Quote Post
 
Start new topic
Replies (1 - 2)
post Nov 24 2022, 08:51:41
Post #2

Мегаманьяк
***********
Group: Металариец
Posts: 1,600
Releases: 10
On Forums: 13 years 11 months
Thanks: 174 time(s)
Germany


Please, re-upload.
Go to the top of the page
  Insert nick Quick quote
+Quote Post
post Nov 24 2022, 10:59:34
Post #3

Слесарь 6-го разряда.
***
Group: Завсегдатай
Posts: 266
Releases: 60
From: Беларусь, Минск.
On Forums: 10 years 11 months
Thanks: 668 time(s)
Belarus


320
Register


Thanks:
Go to the top of the page
  Insert nick Quick quote
+Quote Post

Reply to this topicStart new topic
2 User(s) are reading this topic (2 Guests and 0 Anonymous Users)
0 Members:

 



- Lo-Fi Version Support form
Copyrights and abuse reports form
Time is now: 2nd December 2022 - 10:05:26