Welcome Guest ( Log In | Register )

> Givre - Destin Messianique (2022), Black Metal
post Sep 29 2022, 18:57:46
Post #1

Правь статус, ####!111
**************
Group: Металариец
Posts: 5,724
Releases: 5240
From: Одесса
On Forums: 14 years 6 months
Thanks: 61411 time(s)
Ukraine


(IMG:http://metalarea.org/images/audiocovers/2022_Sep/acov_tid370063_thumb.jpg)

*Artist: Givre
*Album: Destin Messianique
*Year: 2022
*Genre: Black Metal
*Country: Canada (IMG:http://metalarea.org/forum/style_images/flags/Canada.png)
*Format: mp3@CBR320kbps
*Size: 84MB

Tracklist:
1. La Sainte-Vierge intervenant en faveur de l‘armée française à la bataille de la Monongahéla (9 juillet 1755) 06:28
2. Le Christ aux Oliviers 04:14
3. Érable rouge 05:15
4. La voix 05:04
5. Cantique pour la canonisation de la Vénérable Jeanne d‘Arc 01:52
6. Le laboureur 05:30
7. Dernier martyr 05:46
8. Consécration à la Vierge par Maurice Duplessis 00:50
******************************
Total playing time: 34:59



Extended info
Line - up:
Mathieu Garon - Bass
Jean-Lou David - Vocals, Guitars, Keybaords, Lyrics (Entheos)
David Caron-Proulx - Guitars, Vocals, Keyboards, Songwriting (Entheos)

Guest/Session:
Vincent McNicoll - Guitar solo (track 3)

With „Destin messianique“, GIVRE invites you to reflect on the atoning side of pain. It bears testament to the mentality of a people striving to maintain their identity while going through hardship - humble and hard-working, resigned and Catholic. With its well-thought-out concept and atmospherically dense compositions, the album lures the audience into sublime sadness, clings to hearts with icy fingers – and doesn’t let go.


Technical info
(IMG:http://metalarea.org/images/spectrogram/2022_Sep/923081a5251c13be0f3676d69a41c96f.png)
Input File: 05 - Cantique pour la canonisation de la Vénérable Jeanne d\'Arc.mp3
Channels : 2
Sample Rate : 44100
Precision : 16-bit
Duration : 00:01:52.28 = 4951680 samples = 8421.22 CDDA sectors
File Size : 4.50M
Bit Rate : 320k
Sample Encoding: MPEG audio (layer I, II or III)
Comments :
Title=Cantique pour la canonisation de la Vénérable Jeanne d'Arc
Artist=Givre
Album=Destin Messianique
Tracknumber=5
Year=2022
Genre=138



Register


Go to the top of the page
  Insert nick Quick quote
+Quote Post
 
Start new topic
Replies (1 - 2)
post Nov 24 2022, 08:55:20
Post #2

Мегаманьяк
***********
Group: Металариец
Posts: 1,600
Releases: 10
On Forums: 13 years 11 months
Thanks: 174 time(s)
Germany


Please, re-upload.
Go to the top of the page
  Insert nick Quick quote
+Quote Post
post Nov 24 2022, 11:16:12
Post #3

Слесарь 6-го разряда.
***
Group: Завсегдатай
Posts: 266
Releases: 60
From: Беларусь, Минск.
On Forums: 10 years 11 months
Thanks: 668 time(s)
Belarus


320
Register
Go to the top of the page
  Insert nick Quick quote
+Quote Post

Reply to this topicStart new topic
2 User(s) are reading this topic (2 Guests and 0 Anonymous Users)
0 Members:

 



- Lo-Fi Version Support form
Copyrights and abuse reports form
Time is now: 2nd December 2022 - 10:34:41