Welcome Guest ( Log In | Register )

 
Reply to this topicStart new topic
> Violent Execution - Invasores (2022), Thrash Metal/Crossover (D4)
post Sep 29 2022, 22:31:19
Post #1

Правь статус, ####!111
**************
Group: Металариец
Posts: 31,449
Releases: 23190
From: Г.Харьков
On Forums: 10 years 9 months
Thanks: 488233 time(s)
Ukraine


(IMG:http://metalarea.org/images/audiocovers/2022_Sep/acov_tid370065_thumb.jpg)

*Artist: Violent Execution
*Album: Invasores
*Year: 2022
*Genre: Thrash Metal/Crossover
*Country: Argentina (IMG:http://metalarea.org/forum/style_images/flags/Argentina.png)
*Format: mp3@CBR320kbps
*Size: 60MB

Tracklist:
1. Invasores 03:05
2. Desaparecidos 01:46
3. Violentos ejecutivos 00:59
4. Pubertarios 02:52
5. Antología de pandemia 02:20
6. Perfiles perfectos 02:09
7. Carpinchos vs Tinchos 01:22
8. Nos x Tal x Gia 02:29 instrumental
9. Civilización en decadencia 02:56
10. Blindaje 01:14
11. Mr. Beale Pt 2 03:04
12. Untitled 01:31 instrumental
******************************
Total playing time: 25:47




Extended info
Maximiliano Gallippi Bass, Vocals (additional) (2011-2014, 2022-present)
See also: Necroticism, Skullmasher, ex-Bastardos, ex-Zrymgöll
Santiago Aguilar Guitar, Vocals (additional) (2011-present)
See also: Tempestor, ex-Zrymgöll
Gonzalo Rillo Guitar, Vocals (additional) (2011-present)
See also: Kimera, Necroticism, Red Skywalker, ex-Zrymgöll, ex-Hedendom, ex-Skullmasher, ex-Ammentia (live), ex-Blowjob Band, ex-Tsar Kaiser, ex-VHS (live)
Leandro Stemberg Vocals (2011-present)
Santiago Mendoza Drums (2021-present)


Technical info
(IMG:http://metalarea.org/images/spectrogram/2022_Sep/eeddab5ccc13103fa19848684640c746.png)
Input File: 04 - Pubertarios.mp3
Channels : 2
Sample Rate : 44100
Precision : 16-bit
Duration : 00:02:52.00 = 7585200 samples = 12900 CDDA sectors
File Size : 7.06M
Bit Rate : 329k
Sample Encoding: MPEG audio (layer I, II or III)
Comments :
Title=Pubertarios
Artist=Violent Execution
Album=Invasores
Tracknumber=4
Year=2022-09-06
Genre=Alternative
Discnumber=1



Register


Go to the top of the page
  Insert nick Quick quote
+Quote Post

Reply to this topicStart new topic
1 User(s) are reading this topic (1 Guests and 0 Anonymous Users)
0 Members:

 



- Lo-Fi Version Support form
Copyrights and abuse reports form
Time is now: 8th February 2023 - 17:13:11