Welcome Guest ( Log In | Register )

> Čad - Medvede (2021), Grindcore/Crustcore
post Sep 30 2022, 13:24:23
Post #1

Сволочь обыкновенная
**************
Group: Металариец
Posts: 3,332
Releases: 274
From: Брест
On Forums: 15 years 7 months
Thanks: 6485 time(s)
Belarus


(IMG:https://metalarea.org/images/audiocovers/2022_Sep/acov_tid370100_thumb.jpg)

*Artist: Čad
*Album: Medvede
*Year: 2021
*Genre: Grindcore/Crustcore
*Country: Slovakia (IMG:https://metalarea.org/forum/style_images/flags/Slovakia.png)
*Format: mp3@CBR320kbps
*Size: 127MB

Tracklist:
01. Dostal som od otca sekeru 02:27
02. V meste sú medvede 02:49
03. Nepriateľ 02:56
04. Buldozér 03:30
05. Chýbaš priateľ môj 03:41
06. Železný mejdan 03:03
07. Urážanie hudby 02:49
08. Ku dnu 03:39
09. Démon smútku 04:15
10. Surovec 02:46
11. Loď bláznov 03:35
12. Stroskotanci 03:29
******************************
Total playing time: 38:59

Extended info
FLAC Rip, Artwork included


Technical info
(IMG:https://metalarea.org/images/spectrogram/2022_Sep/aad4060438b2c91ea56867a001e5d0ab.png)
Input File: 01 - Dostal Som Od Otca Sekeru.mp3
Channels : 2
Sample Rate : 44100
Precision : 16-bit
Duration : 00:02:27.08 = 6486228 samples = 11031 CDDA sectors
File Size : 6.58M
Bit Rate : 358k
Sample Encoding: MPEG audio (layer I, II or III)
Comments :
Title=Dostal Som Od Otca Sekeru
Artist=ČAD
Album=Medvede
Tracknumber=1
Year=2021
Genre=Metal



Register


Go to the top of the page
  Insert nick Quick quote
+Quote Post
 
Start new topic
Replies (1 - 2)
post Oct 1 2022, 09:42:40
Post #2

Правь статус, ####!111
**************
Group: Металариец
Posts: 2,790
Releases: 0
From: APATIN, SERBIA, АПАТИН, СЕРБИЯ
On Forums: 16 years 1 month
Thanks: 8629 time(s)



Flac

Register


Thanks:
Go to the top of the page
  Insert nick Quick quote
+Quote Post
post Oct 2 2022, 23:18:20
Post #3

Шесть Литров
******
Group: Металариец
Posts: 578
Releases: 0
On Forums: 14 years 10 months
Thanks: 444 time(s)
Brazil


ЦИТАТА(spazm @ Sep 30 2022, 15:24:23) *
*Album: Medvede

(IMG:https://cs8.pikabu.ru/post_img/2017/06/22/7/1498131535191567161.jpg)


Thanks:
(1) spazm,
Go to the top of the page
  Insert nick Quick quote
+Quote Post

Reply to this topicStart new topic
1 User(s) are reading this topic (1 Guests and 0 Anonymous Users)
0 Members:

 



- Lo-Fi Version Support form
Copyrights and abuse reports form
Time is now: 11th December 2023 - 00:34:40