Welcome Guest ( Log In | Register )

> Deep Memories - Why Do We Suffer? (2022), Melodic Doom/Death Metal
post Sep 30 2022, 16:16:41
Post #1

Правь статус, ####!111
**************
Group: Металариец
Posts: 4,127
Releases: 2594
On Forums: 12 years 2 weeks
Thanks: 47269 time(s)
Russian Federation


(IMG:https://metalarea.org/images/audiocovers/2022_Sep/acov_tid370114_thumb.jpg)

*Artist: Deep Memories
*Album: Why Do We Suffer?
*Year: 2022
*Genre: Melodic Doom/Death Metal
*Country: Brazil (IMG:https://metalarea.org/forum/style_images/flags/Brazil.png)
*Format: mp3@CBR320kbps
*Size: 92MB

Tracklist:
1.Enslaved by Reciprocity Obligation (free) 05:37
2.Please, Do Not Close the Coffin! 06:15
3.Get Away From Poison 07:29
4.Uncontrolled Cells Multiplication 07:30
5.Why Do We Suffer? 03:04
6.Prerogatives or Exceptions 08:46
7.A Rocket to Homeland 02:27
******************************
Total playing time: 41:08



Technical info
(IMG:https://metalarea.org/images/spectrogram/2022_Sep/b8ec53b1125be1b186f7ff9eb9d6a508.png)
Input File: 05 - Why Do We Suffer.mp3
Channels : 2
Sample Rate : 44100
Precision : 16-bit
Duration : 00:03:04.54 = 8138302 samples = 13840.6 CDDA sectors
File Size : 7.51M
Bit Rate : 325k
Sample Encoding: MPEG audio (layer I, II or III)
Comments :
Title=Why Do We Suffer?
Artist=Deep Memories
Album=Why Do We Suffer?
Tracknumber=05
Year=2022
Genre= Melodic Death/Doom Metal



Register


Go to the top of the page
  Insert nick Quick quote
+Quote Post
 
Start new topic
Replies (1 - 7)
post Sep 30 2022, 21:28:53
Post #2

Ледоруб
**************
Group: Металариец
Posts: 31,703
Releases: 0
From: Санкт-Петербург
On Forums: 13 years 2 months
Thanks: 11249 time(s)
Russian Federation


Где мнение Графа?
Go to the top of the page
  Insert nick Quick quote
+Quote Post
post Sep 30 2022, 21:50:34
Post #3

Common dweller of hell
**************
Group: Металариец
Posts: 4,497
Releases: 12
From: Dnipro
On Forums: 14 years 4 months
Thanks: 1781 time(s)
Ukraine


ЦИТАТА(6666666 @ Sep 30 2022, 23:28:53) *
Где мнение Графа?

Ну оно будет выглядеть где то так: "Унылое подвальное смердящее блэковое дерьмо не похожее на doom, бразильская деревеньщина с гитарами"


Go to the top of the page
  Insert nick Quick quote
+Quote Post
post Oct 1 2022, 17:33:21
Post #4

Два Литра
**
Group: Завсегдатай
Posts: 153
Releases: 0
On Forums: 12 years 5 months
Thanks: 30 time(s)
Unknown


Вроде норм
Go to the top of the page
  Insert nick Quick quote
+Quote Post
post Oct 1 2022, 22:39:36
Post #5

Пять Литров
*****
Group: Металариец
Posts: 409
Releases: 1
On Forums: 15 years 7 months
Thanks: 39 time(s)
Russian Federation


ЦИТАТА(isvili @ 30th September 2022 - 23:50:34) *
бразильская деревеньщина

не. тут понаехавший. Дуглас Mартинс- это же не Педро Рамирез. впрочем мастеринг по низам не очень( да не нужен нам дизель от вага или, пусть, бычка зила, на нейтрали, УДАРНЫЕ НУЖНЫ). когда нет мощной основы, то кухонный гроул такой кухонный. впрочем пытается, например атмосферу строить- уже хорошо. можно слухать. и пока седина в ребро и бес в бороду не наведались- таки можно вытужить продукт. помнится первые потуги "самой себе музыкантши" по имени LEAH звучали примерно так же, но потом посолиднее стало.
Go to the top of the page
  Insert nick Quick quote
+Quote Post
post Oct 2 2022, 17:59:18
Post #6

Литр
*
Group: Подсевший
Posts: 67
Releases: 0
From: Rīga
On Forums: 16 years 3 weeks
Thanks: 2 time(s)
Russian Federation


Rebuilding the Future ничего так, если этот не хуже то норм
Go to the top of the page
  Insert nick Quick quote
+Quote Post
post Oct 3 2022, 15:55:51
Post #7

Девять Литров
*********
Group: Металариец
Posts: 994
Releases: 49
From: Ивантеевка, Московская область
On Forums: 14 years 11 months
Thanks: 1088 time(s)
Russian Federation


К сожалению - проходная вещь. Можно пропустить, ничего не потеряв.
Go to the top of the page
  Insert nick Quick quote
+Quote Post
post Oct 4 2022, 14:54:35
Post #8

Два Литра
**
Group: Завсегдатай
Posts: 182
Releases: 0
From: Moscow
On Forums: 16 years 10 months
Thanks: 97 time(s)
Russian Federation


А мне понравился. Хороший материал с дарк-овым вокалом и хорошими гитарными мелодиями.
Go to the top of the page
  Insert nick Quick quote
+Quote Post

Reply to this topicStart new topic
2 User(s) are reading this topic (2 Guests and 0 Anonymous Users)
0 Members:

 



- Lo-Fi Version Support form
Copyrights and abuse reports form
Time is now: 3rd December 2022 - 16:03:22