Welcome Guest ( Log In | Register )

> Kranium - Slaves To Our Demise (2022), Thrash Metal (D6)
post Sep 30 2022, 16:49:54
Post #1

Правь статус, ####!111
**************
Group: Металариец
Posts: 30,923
Releases: 22794
From: Г.Харьков
On Forums: 10 years 6 months
Thanks: 477009 time(s)
Unknown


(IMG:http://metalarea.org/images/audiocovers/2022_Sep/acov_tid370119_thumb.jpg)

*Artist: Kranium
*Album: Slaves To Our Demise
*Year: 2022
*Genre: Thrash Metal
*Country: Sweden (IMG:http://metalarea.org/forum/style_images/flags/Sweden.png)
*Format: mp3@CBR320kbps
*Size: 116MB

Tracklist:
01. Give in to Your Desire 04:47
02. Revenge 04:35
03. Induce Suicide 06:07
04. Live or Die 05:06
05. Slaves to our Demise 08:00
06. Men Who March Away 04:02
07. Seconds to Death 04:13
08. Alone with Misery 05:00
09. Chambers of Death 05:12
10. Fatal Contract 03:50
******************************
Total playing time: 50:52



Extended info


Technical info
(IMG:http://metalarea.org/images/spectrogram/2022_Sep/38f4f7fad27be0339f68d614250f3724.png)
Input File: 07 - Seconds to Death.mp3
Channels : 2
Sample Rate : 44100
Precision : 16-bit
Duration : 00:04:12.00 = 11113200 samples = 18900 CDDA sectors
File Size : 10.2M
Bit Rate : 323k
Sample Encoding: MPEG audio (layer I, II or III)
Comments :
Title=Seconds to Death
Artist=Kranium
Album=Slaves to our Demise
Tracknumber=7
Year=2022-10-01
Genre=Metal
Discnumber=1



Register


Go to the top of the page
  Insert nick Quick quote
+Quote Post
 
Start new topic
Replies (1 - 3)
post Sep 30 2022, 18:15:16
Post #2

MDM-Thrash Metal
**************
Group: Металариец
Posts: 11,482
Releases: 1602
From: Одесса
On Forums: 15 years 3 months
Thanks: 37793 time(s)
Ukraine


Исходя из увиденного и услышанного - деревенская самодеятельность.


Thanks:
Go to the top of the page
  Insert nick Quick quote
+Quote Post
post Sep 30 2022, 18:26:15
Post #3

Правь статус, ####!111
**************
Group: Металариец
Posts: 30,923
Releases: 22794
From: Г.Харьков
On Forums: 10 years 6 months
Thanks: 477009 time(s)
Unknown


ЦИТАТА(Andrew @ Sep 30 2022, 18:15:16) *
...деревенская самодеятельность.

Это про твои комментарии можно так сказать (IMG:style_emoticons/default/bye.gif)
Go to the top of the page
  Insert nick Quick quote
+Quote Post
post Sep 30 2022, 21:43:36
Post #4

Common dweller of hell
**************
Group: Металариец
Posts: 4,497
Releases: 12
From: Dnipro
On Forums: 14 years 4 months
Thanks: 1781 time(s)
Ukraine




Thanks:
Go to the top of the page
  Insert nick Quick quote
+Quote Post

Reply to this topicStart new topic
2 User(s) are reading this topic (2 Guests and 0 Anonymous Users)
0 Members:

 



- Lo-Fi Version Support form
Copyrights and abuse reports form
Time is now: 3rd December 2022 - 16:25:13