Welcome Guest ( Log In | Register )

> Lord Of Confusion - Evil Mystery (2022), Occult Stoner/Doom Metal
post Sep 30 2022, 18:55:46
Post #1

Правь статус, ####!111
**************
Group: Металариец
Posts: 7,445
Releases: 6815
From: Одесса
On Forums: 15 years 10 months
Thanks: 79244 time(s)
Ukraine


(IMG:http://metalarea.org/images/audiocovers/2022_Sep/acov_tid370127_thumb.jpg)

*Artist: Lord Of Confusion
*Album: Evil Mystery
*Year: 2022
*Genre: Occult Stoner/Doom Metal
*Country: Portugal (IMG:http://metalarea.org/forum/style_images/flags/Portugal.png)
*Format: mp3@CBR320kbps
*Size: 108MB

Tracklist:
1. Land of Mystery 08:17
2. Howling Void 08:01
3. Interlude 01:38
4. Evil Blood 06:38
5. Witchfinder 07:31
6. Hell 13:16
******************************
Total playing time: 45:21





Extended info
Line - up:

João Fonseca - Bass, Vocals (Alibi)
Nelson Figueiredo - Drums (Alibi)
Danilo Sousa - Guitars
Carlota Sousa - Vocals, Keyboards

Lord of Confusion hails from Portugal and has been creating psychedelic stoner-doom nightmares since 2018. After their terrifying debut EP Burnin’ Valley and the epic 19 minute single Witchmantia the band has doubled down on the amount of horror they can bring with their first full-length album Evil Mystery! Featuring off-kilter keyboards, mournful moans, and a sea of filthy riffs this album takes everything great about the first two Lord Of Confusion releases and amplifies it! It is a heavy and twisted trip into the dark that will inspire ghostly visions for years to come! Morbid And Miserable Records will be releasing both CDs and cassette tapes in the United States and Gruesome Records will release CDs for the European market. Embrace the haunting sound and surrender your soul to the Evil Mystery!

Recommended for fans of:
Windhand, Ruby The Hatchet, Electric Wizard.


Technical info
(IMG:http://metalarea.org/images/spectrogram/2022_Sep/8bb166013205f614822c8eb4ace4ccb1.png)
Input File: 06 Hell.mp3
Channels : 2
Sample Rate : 44100
Precision : 16-bit
Duration : 00:13:16.36 = 35119652 samples = 59727.3 CDDA sectors
File Size : 31.9M
Bit Rate : 320k
Sample Encoding: MPEG audio (layer I, II or III)
Comments :
Title=Hell
Artist=Lord of Confusion
Album=Evil Mystery
Tracknumber=6
Year=2022
Genre=Stoner | Doom Metal



Register


Go to the top of the page
  Insert nick Quick quote
+Quote Post
 
Start new topic
Replies (1 - 3)
post Sep 30 2022, 21:45:33
Post #2

Правь статус, ####!111
**************
Group: Металариец
Posts: 55,754
Releases: 1186
On Forums: 14 years 10 months
Thanks: 54466 time(s)
Russian Federation


Превью просто сытнейшее и тэги верные, кстати, отражают общее звучание релиза. Большое спасибо за релиз!
Go to the top of the page
  Insert nick Quick quote
+Quote Post
post Oct 3 2022, 12:27:02
Post #3

Правь статус, ####!111
**************
Group: Металариец
Posts: 55,754
Releases: 1186
On Forums: 14 years 10 months
Thanks: 54466 time(s)
Russian Federation


Шикарный альбом! Раскатистые мрачные думовые риффы, олдскульные атмосфернейшие клавиши, нагнетающие хоррору, уместный женский вокал (и временами порыкивающий мужской), вайбы ранних Black Sabbath (без наглого копирования).

Однозначно в топ года в думе. (IMG:style_emoticons/default/pray.gif)
Go to the top of the page
  Insert nick Quick quote
+Quote Post
post Oct 4 2022, 09:55:29
Post #4

Маньяк
**********
Group: Металариец
Posts: 1,129
Releases: 51
From: Ивантеевка, Московская область
On Forums: 16 years 3 months
Thanks: 1247 time(s)
Russian Federation


Атмосферно, мрачно. Женский вокал "обречённо-усталый", хорошо ложится на музыкальное полотно. Однако совершенно ничего не запоминается. На пару раз.
Go to the top of the page
  Insert nick Quick quote
+Quote Post

Reply to this topicStart new topic
1 User(s) are reading this topic (1 Guests and 0 Anonymous Users)
0 Members:

 



- Lo-Fi Version Support form
Copyrights and abuse reports form
Time is now: 15th April 2024 - 17:38:40