Welcome Guest ( Log In | Register )

Объявления

* gmail.com упорно продолжает считать почту с нас "unsolicited" и отбивает в том числе и письма активации, поэтому просьба использовать альтернативные почтовые ящики.
------------
* gmail.com continues reject all mail from us as "unsolicited" (activation mails too) therefore please use alternate mail servers.
> Melvins - Bad Moon Rising (2022), Sludge/Punk/Experimental (D)
post Oct 1 2022, 17:16:18
Post #1

Мегаманьяк
***********
Group: Металариец
Posts: 1,577
Releases: 129
On Forums: 10 years 6 months
Thanks: 4097 time(s)
Unknown


(IMG:https://metalarea.org/images/audiocovers/2022_Oct/acov_tid370170_thumb.jpeg)

*Artist: Melvins
*Album: Bad Moon Rising
*Year: 2022
*Genre: Sludge/Punk/Experimental
*Country: United States (IMG:https://metalarea.org/forum/style_images/flags/United%20States.png)
*Format: mp3@CBR320kbps
*Size: 107MB

Tracklist:
01. Mister Dog Is Totally Right 14:02
02. Never Say You're Sorry 05:17
03. My Discomfort Is Radiant 04:48
04. It Won't Or It Might 08:21
05. Hammering 05:30
06. The Receiver And the Empire State 02:49
******************************
Total playing time: 40:47



Technical info
(IMG:https://metalarea.org/images/spectrogram/2022_Oct/1443c5a78d238640496d8735f472425e.png)
Input File: 02 - Never Say You\'re Sorry.mp3
Channels : 2
Sample Rate : 48000
Precision : 16-bit
Duration : 00:05:19.83 = 15351696 samples ~ 23987 CDDA sectors
File Size : 15.3M
Bit Rate : 382k
Sample Encoding: MPEG audio (layer I, II or III)
Comments :
Title=Never Say You’re Sorry
Artist=Melvins
Album=Bad Mood Rising
Tracknumber=02
Year=2022
Genre=Sludge



Register


Go to the top of the page
  Insert nick Quick quote
+Quote Post
 
Start new topic
Replies (1 - 1)
post Oct 3 2022, 13:43:09
Post #2

Правь статус, ####!111
**************
Group: Металариец
Posts: 55,796
Releases: 1189
On Forums: 14 years 10 months
Thanks: 54545 time(s)
Russian Federation


Неторопливая, медитативная, по мелвинсовски-мелодичная Mister Dog Is Totally Right, за 14 минут звучания не проседающая в высоком качестве ни на секунду и меланхоличная Never Say You're Sorry просто прекрасны и позволяют этому альбому стать одним из лучших в этом году.

Группа на сабже предстаёт более традиционно-мелодичными, привычными для слушателя, без излишней экспериментальщины и мудрёных изысков, материал в целом неспешный, релаксовый.


Thanks:
(1) nnnmmm,
Go to the top of the page
  Insert nick Quick quote
+Quote Post

Reply to this topicStart new topic
1 User(s) are reading this topic (1 Guests and 0 Anonymous Users)
0 Members:

 



- Lo-Fi Version Support form
Copyrights and abuse reports form
Time is now: 23rd April 2024 - 16:28:18