Welcome Guest ( Log In | Register )

Объявления

* gmail.com упорно продолжает считать почту с нас "unsolicited" и отбивает в том числе и письма активации, поэтому просьба использовать альтернативные почтовые ящики.
------------
* gmail.com continues reject all mail from us as "unsolicited" (activation mails too) therefore please use alternate mail servers.
> Tons - Hashension (2022), Sludge/Doom Metal (D5)
post Oct 1 2022, 17:39:20
Post #1

Правь статус, ####!111
**************
Group: Металариец
Posts: 7,467
Releases: 6834
From: Одесса
On Forums: 15 years 10 months
Thanks: 79512 time(s)
Ukraine


(IMG:http://metalarea.org/images/audiocovers/2022_Oct/acov_tid370173_thumb.jpg)

*Artist: Tons
*Album: Hashension
*Year: 2022
*Genre: Sludge/Doom Metal
*Country: Italy (IMG:http://metalarea.org/forum/style_images/flags/Italy.png)
*Format: mp3@CBR320kbps
*Size: 94MB

Tracklist:
1. Dope Dealer Scum
2. A Hash Day's Night
3. Slowly We Pot
4. Hempathy for the Devil
5. Ummagummo
6. Hashended (Outro)
******************************
Total playing time: 39:09



Extended info
Line - up:

Paolo - Bass, Vocals
Marco - Drums
Steuso - Guitars

After the infamous split album with the almighty Bongzilla, Tons are back with their third full-length studio album.
Hashension is composed by 6 heavy reefer songs which express the band’s devotion to the Green God. The recipe is the same, but always evolving: an infusion of slow and swampy doom/sludge metal with hints of psychedelia, and the band members’ hardcore-punk background gives the record a groovy and personal feel throughout.


Technical info
(IMG:http://metalarea.org/images/spectrogram/2022_Oct/3f53265453b2c387fa4e13c4538bfdfe.png)
Input File: Tons - Hashension - 01 - Dope Dealer Scum.mp3
Channels : 2
Sample Rate : 48000
Precision : 16-bit
Duration : 00:06:54.31 = 19887120 samples ~ 31073.6 CDDA sectors
File Size : 16.6M
Bit Rate : 320k
Sample Encoding: MPEG audio (layer I, II or III)
Comments :
Title=Dope Dealer Scum
Artist=Tons
Album=Hashension
Tracknumber=1
Year=2022
Genre=Sludge | Doom Metal



Register


Go to the top of the page
  Insert nick Quick quote
+Quote Post
 
Start new topic
Replies (1 - 3)
post Oct 6 2022, 11:31:56
Post #2

Правь статус, ####!111
**************
Group: Металариец
Posts: 55,796
Releases: 1189
On Forums: 14 years 10 months
Thanks: 54545 time(s)
Russian Federation


Вкуснота-жирнота-лепота! Грязный, сырой сладж-стоунер дум в духе Bongzilla / Dopethrone. Мощный звук, лязгающие гитары, блюзоватые соло, сытные риффы и едко-глумливый хриплый вокал. добавляющий смака в это болотное варево.

Ничего нового, но реализовано просто замечательно. Это сладж-стоунер дум, каким он и должен быть. (IMG:style_emoticons/default/pray.gif)


Thanks:
Go to the top of the page
  Insert nick Quick quote
+Quote Post
post Oct 8 2022, 22:33:39
Post #3

Маньяк
**********
Group: Металариец
Posts: 1,192
Releases: 0
From: Isla de Margarita, Venezuela
On Forums: 5 years 3 months
Thanks: 375 time(s)
Venezuela


very very heavy!!!!! (IMG:style_emoticons/default/metaler.gif)
Go to the top of the page
  Insert nick Quick quote
+Quote Post
post Oct 27 2022, 23:39:13
Post #4

Русский
********
Group: Металариец
Posts: 824
Releases: 0
From: Москва
On Forums: 17 years 7 months
Thanks: 254 time(s)
Russian Federation


https://mixdrop.co/f/zpvk6d4paexj6m
Go to the top of the page
  Insert nick Quick quote
+Quote Post

Reply to this topicStart new topic
1 User(s) are reading this topic (1 Guests and 0 Anonymous Users)
0 Members:

 



- Lo-Fi Version Support form
Copyrights and abuse reports form
Time is now: 23rd April 2024 - 14:51:15