Welcome Guest ( Log In | Register )

> Правила / Rules

Тут только для чтения лежат низкобитрейтные (<192kbps) релизы, для которых есть аналоги в высокобитрейтных форумах.

Here goes (and stand in read only mode) low bitrate releases (<192kbps) which were already replaced by high bitrate releases in corresponding forums.

 
Reply to this topicStart new topic
> Circadian Skizm - Symbiant Circle (2009), Death/Thrash Metal
post Oct 2 2022, 03:24:06
Post #1

Подвал
**************
Group: Металариец
Posts: 18,074
Releases: 10352
From: Far East (Khabarovsk)
On Forums: 13 years 10 months
Thanks: 120340 time(s)
Russian Federation


(IMG:http://metalarea.org/images/audiocovers/2022_Oct/acov_tid370189_thumb.jpg)

*Artist: Circadian Skizm
*Album: Symbiant Circle
*Year: 2009
*Genre: Death/Thrash Metal
*Country: United States (IMG:http://metalarea.org/forum/style_images/flags/United%20States.png)
*Format: mp3@CBR192kbps
*Size: 41MB

Tracklist:
1. So Be It 03:23
2. No Matter What 03:44
3. Necromancer 04:26
4. Formation 04:34
5. Alien Messenger 05:36
6. Killing Circus 04:07
7. With Progress Consequence 04:10
******************************
Total playing time: 30:00

Extended info
Band from Long Island, New York.


Technical info
(IMG:http://metalarea.org/images/spectrogram/2022_Oct/0126bfe5f63bc01d4f540d4489bc800e.png)
Input File: 01-So Be It.mp3
Channels : 2
Sample Rate : 44100
Precision : 16-bit
Duration : 00:03:23.57 = 8977437 samples = 15267.8 CDDA sectors
File Size : 4.89M
Bit Rate : 192k
Sample Encoding: MPEG audio (layer I, II or III)
Comments :
Title=So Be It
Artist=Circadian Skizm (US, NY)
Album=Symbiant Circle
Tracknumber=01
Year=2009
Genre=Thrash Metal



Register


Go to the top of the page
  Insert nick Quick quote
+Quote Post

Reply to this topicStart new topic
1 User(s) are reading this topic (1 Guests and 0 Anonymous Users)
0 Members:

 



- Lo-Fi Version Support form
Copyrights and abuse reports form
Time is now: 30th November 2022 - 08:05:21