Welcome Guest ( Log In | Register )

 
Reply to this topicStart new topic
> Factory Of Art - ...No Better World! [demo] (1992), Progressive/Heavy Metal (D4)
post Oct 2 2022, 03:35:06
Post #1

Подвал
**************
Group: Металариец
Posts: 18,074
Releases: 10352
From: Far East (Khabarovsk)
On Forums: 13 years 10 months
Thanks: 120340 time(s)
Russian Federation


(IMG:http://metalarea.org/images/audiocovers/2022_Oct/acov_tid370190_thumb.jpg)

*Artist: Factory Of Art
*Album: ...No Better World! [demo]
*Year: 1992
*Genre: Progressive/Heavy Metal
*Country: Germany (IMG:http://metalarea.org/forum/style_images/flags/Germany.png)
*Format: mp3@CBR320kbps
*Size: 45MB

Tracklist:
1. Wings Of Destiny 06:02
2. Killing Syringe 05:30
3. Running With The Wolfs 04:53
4. In The Sky (Live 1991) 03:13
******************************
Total playing time: 19:38

Extended info
Thanx porosimetal for this demo!


Technical info
(IMG:http://metalarea.org/images/spectrogram/2022_Oct/cb7b1b8244a8e674cbfa96b69f5eeba9.png)
Input File: 01-Wings Of Destiny.mp3
Channels : 2
Sample Rate : 44100
Precision : 16-bit
Duration : 00:05:53.49 = 15588689 samples = 26511.4 CDDA sectors
File Size : 14.1M
Bit Rate : 320k
Sample Encoding: MPEG audio (layer I, II or III)
Comments :
Title=Wings Of Destiny
Artist=Factory of Art (Ger)
Album=...No Better World! (Demo)
Tracknumber=01
Year=1992
Genre=Metal



Register


Go to the top of the page
  Insert nick Quick quote
+Quote Post

Reply to this topicStart new topic
1 User(s) are reading this topic (1 Guests and 0 Anonymous Users)
0 Members:

 



- Lo-Fi Version Support form
Copyrights and abuse reports form
Time is now: 30th November 2022 - 09:24:24