Welcome Guest ( Log In | Register )

> Releases Upload / Добавление релизов

Добавить релиз тут / Click here to add release
Рекомендованные обменники / Recommended file shares

> Lifetaker - Der Letzte Raum (2022), Grindcore/Hardcore/Sludge
post Oct 2 2022, 19:07:38
Post #1

Правь статус, ####!111
**************
Group: Металариец
Posts: 5,724
Releases: 5240
From: Одесса
On Forums: 14 years 6 months
Thanks: 61412 time(s)
Ukraine


(IMG:http://metalarea.org/images/audiocovers/2022_Oct/acov_tid370224_thumb.jpg)

*Artist: Lifetaker
*Album: Der Letzte Raum
*Year: 2022
*Genre: Grindcore/Hardcore/Sludge
*Country: Germany (IMG:http://metalarea.org/forum/style_images/flags/Germany.png)
*Format: mp3@CBR320kbps
*Size: 57MB

Tracklist:
1. Bunkerjugend
2. Patrizidprotokoll
3. Fleischwolf
4. Strafisolator
5. Alpha Antichrist
6. Kehlbiss
7. Störfunk
8. Kadaverstille
9. Blutopfer
10. Gottgeburt
11. Madenvolk
12. Schlafparalyse
13. Tempelfaust
14. Vernichtungstanz
15. Gamma Mörser
******************************
Total playing time: 23:43




Extended info
Line - up:

Gerrit - Bass (ex-Hanni Kohl, ex-Vergil)
Nico - Drums (ex-The Sovereign, ex-Placenta Powerfist, ex-Mossat)
Alex - Guitars (ex-The Sovereign, ex-Mossat)
Tobias - Guitars (ex-Vergil)
Konstantin - Vocals (ex-Wolves Carry My Name)


Technical info
(IMG:http://metalarea.org/images/spectrogram/2022_Oct/ddf9658bb338684ffe6f34793703f178.png)
Input File: 02. Patrizidprotokoll.mp3
Channels : 2
Sample Rate : 44100
Precision : 16-bit
Duration : 00:02:31.86 = 6697070 samples = 11389.6 CDDA sectors
File Size : 6.16M
Bit Rate : 325k
Sample Encoding: MPEG audio (layer I, II or III)
Comments :
Title=Patrizidprotokoll
Artist=Lifetaker
Album=Der letzte Raum
Tracknumber=2
Year=2022
Genre=Grindcore | Hardcore | Sludge Metal



Register


Go to the top of the page
  Insert nick Quick quote
+Quote Post
 
Start new topic
Replies (1 - 2)
post Nov 24 2022, 10:50:55
Post #2

Мегаманьяк
***********
Group: Металариец
Posts: 1,600
Releases: 10
On Forums: 13 years 11 months
Thanks: 174 time(s)
Germany


Please, re-upload.
Go to the top of the page
  Insert nick Quick quote
+Quote Post
post Nov 24 2022, 11:04:07
Post #3

Слесарь 6-го разряда.
***
Group: Завсегдатай
Posts: 266
Releases: 60
From: Беларусь, Минск.
On Forums: 10 years 11 months
Thanks: 668 time(s)
Belarus


320
Register
Go to the top of the page
  Insert nick Quick quote
+Quote Post

Reply to this topicStart new topic
2 User(s) are reading this topic (2 Guests and 0 Anonymous Users)
0 Members:

 



- Lo-Fi Version Support form
Copyrights and abuse reports form
Time is now: 2nd December 2022 - 11:12:54