Welcome Guest ( Log In | Register )

> И неформату есть предел.

Рэп/хип-хоп/шансон/поп удаляются. Для них есть свои порталы.

> Ёк-Макарёк - На Кочерге (2022), Ethnic Punk Rock
post Oct 2 2022, 19:36:10
Post #1

Слесарь 6-го разряда.
***
Group: Завсегдатай
Posts: 263
Releases: 60
From: Беларусь, Минск.
On Forums: 10 years 11 months
Thanks: 660 time(s)
Belarus


(IMG:https://metalarea.org/images/audiocovers/2022_Oct/acov_tid370226_thumb.jpg)

*Artist: Ёк-Макарёк
*Album: На Кочерге
*Year: 2022
*Genre: Ethnic Punk Rock
*Country: Russian Federation (IMG:https://metalarea.org/forum/style_images/flags/Russian%20Federation.png)
*Format: mp3@CBR320kbps
*Size: 109MB

Tracklist:
01. Жигули 03:21
02. Моя Борьба 03:06
03. Обороты 03:24
04. Граненый Стакан 06:15
05. Загон 04:21
06. Вырвань 02:22
07. Старец 03:23
08. Синкретизм 01:21
09. За Богов 03:26
10. Под Шалой Грозой 03:00
11. В Срок 04:45
12. Богословие 06:54
13. Коза-Пьяница (Bonus) 02:56
14. Соседи (Bonus) 02:40
******************************
Total playing time: 51:14

(IMG:https://metalarea.org/images/youtube.png)

Technical info
(IMG:https://metalarea.org/images/spectrogram/2022_Oct/a1b4838f8fe81a4ad3a18fbc89acc093.png)
Input File: 05 - Загон.mp3
Channels : 2
Sample Rate : 48000
Precision : 16-bit
Duration : 00:04:21.67 = 12560256 samples ~ 19625.4 CDDA sectors
File Size : 10.9M
Bit Rate : 334k
Sample Encoding: MPEG audio (layer I, II or III)
Comments :
Title=Загон
Artist=Ёк-макарёк
Album=На Кочерге
Tracknumber=5
Year=2022
Genre=Ethno Punk Rock



Register


Go to the top of the page
  Insert nick Quick quote
+Quote Post
 
Start new topic
Replies (1 - 4)
post Oct 3 2022, 18:31:01
Post #2

Девять Литров
*********
Group: Металариец
Posts: 979
Releases: 0
From: Россия
On Forums: 14 years 4 months
Thanks: 541 time(s)
Russian Federation


Какая-то пропаганда самоубийства и массового убийства
Go to the top of the page
  Insert nick Quick quote
+Quote Post
post Oct 3 2022, 18:40:26
Post #3

кручу наждак
**************
Group: Металариец
Posts: 5,800
Releases: 107
From: Самара
On Forums: 12 years 6 months
Thanks: 4548 time(s)
Russian Federation


Ёк-Рагнарёк
Go to the top of the page
  Insert nick Quick quote
+Quote Post
post Oct 3 2022, 20:06:46
Post #4

Ёлд ХеллоВяйне
Group Icon
Group: V.I.P
Posts: 33,803
Releases: 144
From: Питер
On Forums: 16 years 1 month
Thanks: 21245 time(s)
Russian Federation


Почему медведь на обложке без стакана? Скрепы шатаете?!


Thanks:
(1) Bruce,
Go to the top of the page
  Insert nick Quick quote
+Quote Post
post Oct 10 2022, 18:08:43
Post #5

0%Tolerance
**************
Group: Металариец
Posts: 2,311
Releases: 0
On Forums: 10 years 2 months
Thanks: 467 time(s)
Unknown


Нудная гопо-колхозная фолг рог читка.
Раньше стафф на порядок был лучше.
Go to the top of the page
  Insert nick Quick quote
+Quote Post

Reply to this topicStart new topic
1 User(s) are reading this topic (1 Guests and 0 Anonymous Users)
0 Members:

 



- Lo-Fi Version Support form
Copyrights and abuse reports form
Time is now: 29th November 2022 - 13:21:54