Welcome Guest ( Log In | Register )

> Releases Upload / Добавление релизов

Добавить релиз тут / Click here to add release
Рекомендованные обменники / Recommended file shares

> Homeskin - Itch Ecstasy (2022), Avant-Garde Black Metal/Grindcore (D14)
post Oct 3 2022, 18:35:22
Post #1

Правь статус, ####!111
**************
Group: Металариец
Posts: 5,724
Releases: 5240
From: Одесса
On Forums: 14 years 6 months
Thanks: 61410 time(s)
Ukraine


(IMG:http://metalarea.org/images/audiocovers/2022_Oct/acov_tid370254_thumb.jpg)

*Artist: Homeskin
*Album: Itch Ecstasy
*Year: 2022
*Genre: Avant-Garde Black Metal/Grindcore
*Country: United States (IMG:http://metalarea.org/forum/style_images/flags/United%20States.png)
*Format: mp3@CBR320kbps
*Size: 74MB

Tracklist:
1. Tiny Bodies Burrowed in the Ear 05:24
2. Encrusted Jacket in the Bath 04:06
3. Radiant Wound 04:33
4. Back of the Closet You Thrive Painfully 05:11
5. Yellow Film Formulating 04:27
6. Raw to the Touch 07:10
******************************
Total playing time: 30:51



Extended info
Line - up:

GB - All instruments, Vocals (Cara Neir, Gonemage, ex-Dire, ex-Ghastrah Proxiima, ex-Parabstruse, ex-Sallow Moth, ex-Semen Across Lips, ex-Thō, KSSL, Lev'myr, ex-Wildspeaker, ex-Bunrage, ex-Lunarian Sea, ex-Nautilusk, ex-Smoosz, ex-Sugar Highlands, ex-Synthetic Onslaught, ex-They Mostly Come Out at Night, ex-Vision Éternel, ex-Writhe)


Technical info
(IMG:http://metalarea.org/images/spectrogram/2022_Oct/efdd8a466a72e56e9aca1f2a74aada2e.png)
Input File: 03 - Radiant Wound.mp3
Channels : 2
Sample Rate : 44100
Precision : 16-bit
Duration : 00:04:33.00 = 12039300 samples = 20475 CDDA sectors
File Size : 11.0M
Bit Rate : 321k
Sample Encoding: MPEG audio (layer I, II or III)
Comments :
Title=Radiant Wound
Artist=Homeskin
Album=Itch Ecstasy
Tracknumber=3
Year=2022-10-04
Genre=Avant-garde Black Metal, Grindcore



Register


Go to the top of the page
  Insert nick Quick quote
+Quote Post
 
Start new topic
Replies (1 - 2)
post Nov 25 2022, 07:25:32
Post #2

Мегаманьяк
***********
Group: Металариец
Posts: 1,600
Releases: 10
On Forums: 13 years 11 months
Thanks: 174 time(s)
Germany


Please, re-upload.
Go to the top of the page
  Insert nick Quick quote
+Quote Post
post Nov 25 2022, 10:02:03
Post #3

Слесарь 6-го разряда.
***
Group: Завсегдатай
Posts: 266
Releases: 60
From: Беларусь, Минск.
On Forums: 10 years 11 months
Thanks: 668 time(s)
Belarus


320
Register


Thanks:
(1) deathic,
Go to the top of the page
  Insert nick Quick quote
+Quote Post

Reply to this topicStart new topic
2 User(s) are reading this topic (2 Guests and 0 Anonymous Users)
0 Members:

 



- Lo-Fi Version Support form
Copyrights and abuse reports form
Time is now: 2nd December 2022 - 10:20:58