Welcome Guest ( Log In | Register )

> Pre-Human Vaults - Allegiance Divine [ep] (2022), Thrash Metal
post Oct 5 2022, 03:00:48
Post #1

Правь статус, ####!111
**************
Group: Металариец
Posts: 4,725
Releases: 3159
On Forums: 12 years 2 months
Thanks: 56925 time(s)
Russian Federation


(IMG:https://metalarea.org/images/audiocovers/2022_Oct/acov_tid370296_thumb.jpg)

*Artist: Pre-Human Vaults
*Album: Allegiance Divine [ep]
*Year: 2022
*Genre: Thrash Metal
*Country: Sweden (IMG:https://metalarea.org/forum/style_images/flags/Sweden.png)
*Format: mp3@CBR320kbps
*Size: 40MB

Tracklist:
1.Whirlwind Reaper 04:57
2.Close To All, Next To Nothing 04:23
3.When The Trap Is Set 04:01
4.Shadow .44 04:05
******************************
Total playing time: 17:26



Technical info
(IMG:https://metalarea.org/images/spectrogram/2022_Oct/35c3bd3586622836d6dd94eb0e73b816.png)
Input File: 02. Close to All, Next To Nothing.mp3
Channels : 2
Sample Rate : 44100
Precision : 16-bit
Duration : 00:04:23.78 = 11632522 samples = 19783.2 CDDA sectors
File Size : 10.8M
Bit Rate : 327k
Sample Encoding: MPEG audio (layer I, II or III)
Comments :
Title=Close To All, Next To Nothing
Artist=Pre-Human Vaults
Album=Allegiance Divine (EP)
Tracknumber=02
Year=2022
Genre=Death Metal



Register


Go to the top of the page
  Insert nick Quick quote
+Quote Post
 
Start new topic
Replies (1 - 6)
post Oct 6 2022, 05:36:24
Post #2

HV/DC
********
Group: Металариец
Posts: 834
Releases: 0
From: Erlangen, Bayern
On Forums: 15 years 11 months
Thanks: 217 time(s)
Germany


Кристиан Альвестам на вокале, что для определённого круга слушателей означает знак качества.
Трэшом здесь и не пахнет - это нормальный классичский бронебойный шведоdeath, так что просьба поправить


Кстати Кристиан к великому сожалению недавно заболел очень нехорошей для музыканта болячкой, которая грозит потерей слуха и все его проэкты встали.
Unfortunately everything I’m involved in right now, musically, has been paused indefinitely, due to a severe ear infection following a cold, which have lead to hearing loss in my left ear (accompanied by a pretty bad noise-like tinnitus). I was even hospitalized for a few days where I received antibiotics intravenously and where they also had to puncture my ear drum several times in order to get the purulent fluid out, clogged behind the ear drum. ????????
The doctors tell me that my hearing will possibly come back in 1-3 months (they can’t tell for sure), but there will most likely be some sort of permanent hearing loss in the process. They’re also not sure if my tinnitus will go away or if it’s here to stay. I guess I can learn how to live with tinnitus, if it comes to that, but hearing loss (to a still unknown extent) will be a lot trickier getting used to and working around. ???? Right now it’s hard even listening to music at all, so I’m worried about what will happen to my own music-making onwards. ????????‍♂️
The uncertainty of it all is difficult to cope with, but there’s really nothing I can do about it, besides waiting it out and hope for the best! ????????????
/Christian


Go to the top of the page
  Insert nick Quick quote
+Quote Post
post Oct 6 2022, 19:42:29
Post #3

Тридцать три года на борту "тяжёлого" крейсера
**************
Group: Металариец
Posts: 2,980
Releases: 0
From: Питер
On Forums: 15 years 7 months
Thanks: 948 time(s)
Russian Federation


Качественный материал
Полный формат быт такого драйва
Go to the top of the page
  Insert nick Quick quote
+Quote Post
post Jan 23 2023, 18:46:44
Post #4

Литр
*
Group: Подсевший
Posts: 85
Releases: 0
From: Argentina - La Plata
On Forums: 15 years 3 months
Thanks: 23 time(s)
Finland


re upload it please, thanks


Thanks:
Go to the top of the page
  Insert nick Quick quote
+Quote Post
post Jan 23 2023, 19:45:30
Post #5

Пять Литров
*****
Group: Металариец
Posts: 412
Releases: 3
From: Украина
On Forums: 4 years 6 months
Thanks: 209 time(s)
Ukraine


ЦИТАТА(sadmannn @ Oct 6 2022, 20:42:29) *
Качественный материал
Полный формат быт такого драйва

Поддерживаю!
Go to the top of the page
  Insert nick Quick quote
+Quote Post
post Jan 23 2023, 20:39:44
Post #6

Правь статус, ####!111
**************
Group: Металариец
Posts: 3,192
Releases: 0
On Forums: 7 years 8 months
Thanks: 4555 time(s)
Russian Federation


320
Register


Thanks:
Go to the top of the page
  Insert nick Quick quote
+Quote Post
post Jan 25 2023, 21:31:11
Post #7

Литр
*
Group: Подсевший
Posts: 85
Releases: 0
From: Argentina - La Plata
On Forums: 15 years 3 months
Thanks: 23 time(s)
Finland


QUOTE(METALHUNTER @ Jan 23 2023, 16:39:44) *
320


Thanks genius !
Go to the top of the page
  Insert nick Quick quote
+Quote Post

Reply to this topicStart new topic
1 User(s) are reading this topic (1 Guests and 0 Anonymous Users)
0 Members:

 



- Lo-Fi Version Support form
Copyrights and abuse reports form
Time is now: 28th January 2023 - 21:40:17