Welcome Guest ( Log In | Register )

> Releases Upload / Добавление релизов

Добавить релиз тут / Click here to add release
Рекомендованные обменники / Recommended file shares

> Headshot - Eyes Of The Guardians (2022), Thrash Metal (D)
post Oct 13 2022, 12:54:05
Post #1

Правь статус, ####!111
**************
Group: Металариец
Posts: 30,908
Releases: 22779
From: Г.Харьков
On Forums: 10 years 6 months
Thanks: 476810 time(s)
Unknown


(IMG:https://metalarea.org/images/audiocovers/2022_Oct/acov_tid370654_thumb.jpg)

*Artist: Headshot
*Album: Eyes Of The Guardians
*Year: 2022
*Genre: Thrash Metal
*Country: Germany (IMG:https://metalarea.org/forum/style_images/flags/Germany.png)
*Format: mp3@CBR320kbps
*Size: 98MB

Tracklist:
1. Burned (One by One)
2. Eyes of the Guardians
3. Scars of Damnation
4. Ground Zero
5. Tentacular (Part 1)
6. Divide Et Impera
7. Under a Blood Red Sky
8. The Impenetrable Maze
9. Veins of the Earth
10. Invisible
******************************
Total playing time: 42:18



Extended info
Olaf Danneberg Guitars (1993-present)
See also: ex-Deny the Urge
Till Hartmann Drums (2000-present)
See also: ex-Farmer Boys, ex-Unbound
Daniela Karrer Vocals (2008-present)
See also: ex-Square Waves, ex-Uppercut, ex-Misgiving
Max Hunger Bass (2012-2019), Guitars (2019-present)
See also: Deny the Urge
Ben Heber Bass (2019-present)
See also: Deny the Urge, ex-Spheric


Technical info
(IMG:https://metalarea.org/images/spectrogram/2022_Oct/b5fda5e3947e1fc2d593cf46011af499.png)
Input File: 07 - Under a Blood Red Sky.mp3
Channels : 2
Sample Rate : 44100
Precision : 16-bit
Duration : 00:04:47.00 = 12656700 samples = 21525 CDDA sectors
File Size : 11.6M
Bit Rate : 324k
Sample Encoding: MPEG audio (layer I, II or III)
Comments :
Title=Under a Blood Red Sky
Artist=HeadShot
Album=Eyes of the Guardians
Tracknumber=7
Year=2022-10-14
Genre=Rock
Discnumber=1



Register


Go to the top of the page
  Insert nick Quick quote
+Quote Post
 
Start new topic
Replies (1 - 2)
post Nov 24 2022, 11:46:23
Post #2

Шесть Литров
******
Group: Металариец
Posts: 576
Releases: 0
From: Isla de Margarita, Venezuela
On Forums: 3 years 10 months
Thanks: 124 time(s)
Venezuela


Very Good Album!!!!
Go to the top of the page
  Insert nick Quick quote
+Quote Post
post Nov 25 2022, 08:13:44
Post #3

Мегаманьяк
***********
Group: Металариец
Posts: 1,947
Releases: 1
From: APATIN, SERBIA, АПАТИН, СЕРБИЯ
On Forums: 15 years 1 month
Thanks: 5735 time(s)



Flac

Register
Go to the top of the page
  Insert nick Quick quote
+Quote Post

Reply to this topicStart new topic
2 User(s) are reading this topic (2 Guests and 0 Anonymous Users)
0 Members:

 



- Lo-Fi Version Support form
Copyrights and abuse reports form
Time is now: 2nd December 2022 - 09:42:36