Welcome Guest ( Log In | Register )

Объявления

* gmail.com упорно продолжает считать почту с нас "unsolicited" и отбивает в том числе и письма активации, поэтому просьба использовать альтернативные почтовые ящики.
------------
* gmail.com continues reject all mail from us as "unsolicited" (activation mails too) therefore please use alternate mail servers.
> Mglyan - П​а​м​я​т​ь С​в​я​щ​е​н​н​ы​х К​о​с​т​р​о​в [ep] (2022), Pagan/Black Metal
post Oct 17 2022, 18:18:44
Post #1

Правь статус, ####!111
**************
Group: Металариец
Posts: 7,613
Releases: 6964
From: Одесса
On Forums: 16 years 1 week
Thanks: 81238 time(s)
Ukraine


(IMG:http://metalarea.org/images/audiocovers/2022_Oct/acov_tid370883_thumb.jpg)

*Artist: Mglyan
*Album: П​а​м​я​т​ь С​в​я​щ​е​н​н​ы​х К​о​с​т​р​о​в [ep]
*Year: 2022
*Genre: Pagan/Black Metal
*Country: Russian Federation (IMG:http://metalarea.org/forum/style_images/flags/Russian%20Federation.png)
*Format: mp3@CBR320kbps
*Size: 72MB

Tracklist:
1. Потомкам Арийских Богов 08:40
2. Память Священных Костров 03:25
3. Дали 05:19
4. Взывая к Предкам 04:38
5. Единый Закон 07:50
******************************
Total playing time: 29:52



Extended info
FLAC RIP

Recorded in 2007.

The forgotten tale of Slawia

In dark autumn nights among the northern Russian thickets standing atop of the titanic dead lake the band called Mglyan' was created by three shadows of the cursed pagan dusk. Since those days a dozen of damnations were spewn into the light of the ghastly stars and carved into the matter of this world as a "Memory of the Sacred Fires" demo recording in 2005.
In 2009 the band transmutates into a one man project named Slawia from now on with Majestic Knight being the only shadow standing behind all the further creations.
In 2012 the full length album entitled "To the Song of the hardtempered Will" was forged in solitude and determination of the intuitively reconstructed ritual. And since then the spirits of Slawia withdraw into the enchanting twilight to seek the new grim inspirations for 10 more long and evil winters.


Technical info
(IMG:http://metalarea.org/images/spectrogram/2022_Oct/3d1e53eab85d898c8913613b8406c43d.png)
Input File: 02. Память Священных Костров.mp3
Channels : 2
Sample Rate : 44100
Precision : 16-bit
Duration : 00:03:25.73 = 9072605 samples = 15429.6 CDDA sectors
File Size : 8.33M
Bit Rate : 324k
Sample Encoding: MPEG audio (layer I, II or III)
Comments :
Title=Память Священных Костров
Artist=Mglyan
Album=Memory of the Sacred Fires (EP)
Tracknumber=2
Year=2007
Genre=Pagan | Black Metal



Register


Go to the top of the page
  Insert nick Quick quote
+Quote Post
 
Start new topic
Replies (1 - 4)
post Oct 18 2022, 14:52:31
Post #2

0%Tolerance
**************
Group: Металариец
Posts: 2,987
Releases: 0
On Forums: 11 years 8 months
Thanks: 570 time(s)
Unknown


Чувак из Череповца этой пургой может только в Вологде бравировать.
Go to the top of the page
  Insert nick Quick quote
+Quote Post
post Oct 18 2022, 15:56:20
Post #3

Шесть Литров
******
Group: Металариец
Posts: 584
Releases: 0
On Forums: 15 years 4 months
Thanks: 446 time(s)
Brazil


Армянская Mgla?


Thanks:
(2) Kwaad, ssv,
Go to the top of the page
  Insert nick Quick quote
+Quote Post
post Oct 18 2022, 17:55:24
Post #4

Leegte
***********
Group: Металариец
Posts: 1,810
Releases: 19
From:
On Forums: 12 years 1 month
Thanks: 2708 time(s)



QUOTE(nsk2008 @ Oct 18 2022, 17:56:20) *
Армянская Mgla?


Mglyat'
Go to the top of the page
  Insert nick Quick quote
+Quote Post
post Oct 18 2022, 19:11:50
Post #5

Здравый
******
Group: Металариец
Posts: 635
Releases: 117
On Forums: 17 years 5 months
Thanks: 2640 time(s)
Unknown


(IMG:https://s1.hostingkartinok.com/uploads/thumbs/2022/10/fa65237d6e8c3fadc75b06ec9a382a75.png)
Go to the top of the page
  Insert nick Quick quote
+Quote Post

Reply to this topicStart new topic
1 User(s) are reading this topic (1 Guests and 0 Anonymous Users)
0 Members:

 



- Lo-Fi Version Support form
Copyrights and abuse reports form
Time is now: 14th June 2024 - 06:14:08